Welcome Guest ( Log In | Register )

> И неформату есть предел.

Рэп/хип-хоп/шансон/поп удаляются. Для них есть свои порталы.

> Kanaan - Windborne (2018), Instrumental/Psychedelic Doom/Progressive Rock/Jazz/Fusion
post Nov 19 2019, 08:41:33
Post #1

Правь статус, ####!111
**************
Group: Металариец
Posts: 44,528
Releases: 688
On Forums: 10 years 6 months
Thanks: 35846 time(s)
Russian Federation


(IMG:http://metalarea.org/images/audiocovers/2019_Nov/acov_tid330529_thumb.jpg)

*Artist: Kanaan
*Album: Windborne
*Year: 2018
*Genre: Instrumental/Psychedelic Doom/Progressive Rock/Jazz/Fusion
*Country: Norway (IMG:http://metalarea.org/forum/style_images/flags/Norway.png)
*Format: mp3@CBR320kbps
*Size: 91MB

Tracklist:
1. A Hausenbecken 07:56
2. Roll Beyond 10:37
3. Harmonia 05:20
4. Act Upon The Mundane World 08:00
5. The Groke 05:47
6. Windborne 06:26
******************************
Total playing time: 44:06

(IMG:http://metalarea.org/images/youtube.png)

Technical info
(IMG:http://metalarea.org/images/spectrogram/2019_Nov/b1972ba737b41fb115562829eb57e3d8.png)
Input File: 01. A. Hausenbecker.mp3
Channels : 2
Sample Rate : 44100
Precision : 16-bit
Duration : 00:07:56.09 = 20995349 samples = 35706.4 CDDA sectors
File Size : 19.1M
Bit Rate : 321k
Sample Encoding: MPEG audio (layer I, II or III)
Comments :
Title=A. Hausenbecker
Artist=Kanaan
Album=Windborne
Tracknumber=1
Year=2018
Genre= Rock



Register


Go to the top of the page
  Insert nick Quick quote
+Quote Post
 
Start new topic
Replies (1 - 1)
post Nov 20 2019, 10:22:22
Post #2

Правь статус, ####!111
**************
Group: Металариец
Posts: 44,528
Releases: 688
On Forums: 10 years 6 months
Thanks: 35846 time(s)
Russian Federation


Приятный медитатив.
Go to the top of the page
  Insert nick Quick quote
+Quote Post

Reply to this topicStart new topic
1 User(s) are reading this topic (1 Guests and 0 Anonymous Users)
0 Members:

 



- Lo-Fi Version Support form
Copyrights and abuse reports form
Time is now: 11th December 2019 - 04:24:37