Welcome Guest ( Log In | Register )

> И неформату есть предел.

Рэп/хип-хоп/шансон/поп удаляются. Для них есть свои порталы.

> Black Joe Lewis & The Honeybears - The Difference Between Me & You (2018), Blues Rock/Soul
post Nov 19 2019, 09:15:43
Post #1

Правь статус, ####!111
**************
Group: Металариец
Posts: 44,506
Releases: 688
On Forums: 10 years 6 months
Thanks: 35839 time(s)
Russian Federation


(IMG:http://metalarea.org/images/audiocovers/2019_Nov/acov_tid330531_thumb.jpg)

*Artist: Black Joe Lewis & The Honeybears
*Album: The Difference Between Me & You
*Year: 2018
*Genre: Blues Rock/Soul
*Country: United States (IMG:http://metalarea.org/forum/style_images/flags/United%20States.png)
*Format: mp3@CBR320kbps
*Size: 118MB

Tracklist:
1. Nothing but a Cliché 04:01
2. Face in the Scene 04:05
3. No Rhyme or Reason 03:54
4. Some Conversations You Just Don't Need to Have 03:41
5.Culture Vulture 03:00
6. Suit or Soul? 02:57
7. Handshake Drugs 05:55
8. She Came onto Me 05:56
9. Do Yourself In 04:03
10. Hemmin' & hawin' 04:17
11.Girls on Bikes 02:11
12. Gut Feeling 03:35
13. Blue Leather 03:56
******************************
Total playing time: 51:31

(IMG:http://metalarea.org/images/youtube.png)

Technical info
(IMG:http://metalarea.org/images/spectrogram/2019_Nov/2da7658566f6788afe33fe4b9f752c7b.png)
Input File: 01 - Nothing but a Cliché.mp3
Channels : 2
Sample Rate : 44100
Precision : 16-bit
Duration : 00:04:01.31 = 10641727 samples = 18098.2 CDDA sectors
File Size : 9.71M
Bit Rate : 322k
Sample Encoding: MPEG audio (layer I, II or III)
Comments :
Title=Nothing but a Cliché
Artist=Black Joe Lewis & The Honeybears
Album=The Difference Between Me & You
Tracknumber=01
Year=2018
Genre=Blues



Register


Thanks:
Go to the top of the page
  Insert nick Quick quote
+Quote Post
 
Start new topic
Replies (1 - 1)
post Nov 20 2019, 10:05:20
Post #2

Правь статус, ####!111
**************
Group: Металариец
Posts: 44,506
Releases: 688
On Forums: 10 years 6 months
Thanks: 35839 time(s)
Russian Federation


Хорошчный блюз, душевный.
Go to the top of the page
  Insert nick Quick quote
+Quote Post

Reply to this topicStart new topic
1 User(s) are reading this topic (1 Guests and 0 Anonymous Users)
0 Members:

 



- Lo-Fi Version Support form
Copyrights and abuse reports form
Time is now: 10th December 2019 - 11:22:11