Welcome Guest ( Log In | Register )

> И неформату есть предел.

Рэп/хип-хоп/шансон/поп удаляются. Для них есть свои порталы.

> Dr.Awkward & The Screws - Gettin' Out Of Style (2019), 70´s Blues/Hard Rock/Stoner/Proto Metal
post Nov 19 2019, 09:38:21
Post #1

Правь статус, ####!111
**************
Group: Металариец
Posts: 44,506
Releases: 688
On Forums: 10 years 6 months
Thanks: 35839 time(s)
Russian Federation


(IMG:http://metalarea.org/images/audiocovers/2019_Nov/acov_tid330533_thumb.jpg)

*Artist: Dr.Awkward & The Screws
*Album: Gettin' Out Of Style
*Year: 2019
*Genre: 70´s Blues/Hard Rock/Stoner/Proto Metal
*Country: Greece (IMG:http://metalarea.org/forum/style_images/flags/Greece.png)
*Format: mp3@CBR320kbps
*Size: 89MB

Tracklist:
1. Take me down 04:44
2. Below 05:05
3. Doomed 03:23
4. Read between the lines 04:11
5. Outcast of the decades 02:49
6. Spellbound 07:02
7. Low life groove 04:11
8. Overdued 03:51
9. Counting 05:31
******************************
Total playing time: 40:47



Technical info
(IMG:http://metalarea.org/images/spectrogram/2019_Nov/d1f0b1b7f14c246b826e44cf57a9d2ac.png)
Input File: 01 - Dr.Awkward & the Screws - Take Me Down.mp3
Channels : 2
Sample Rate : 44100
Precision : 16-bit
Duration : 00:04:44.59 = 12550551 samples = 21344.5 CDDA sectors
File Size : 11.5M
Bit Rate : 322k
Sample Encoding: MPEG audio (layer I, II or III)
Comments :
Title=Take Me Down
Artist=Dr.Awkward & the Screws
Album=Gettin' out of Style
Tracknumber=1/9
Year=2019
Genre=Rock
Discnumber=1/1



Register


Thanks:
Go to the top of the page
  Insert nick Quick quote
+Quote Post
 
Start new topic
Replies (1 - 2)
post Nov 20 2019, 10:04:54
Post #2

Правь статус, ####!111
**************
Group: Металариец
Posts: 44,506
Releases: 688
On Forums: 10 years 6 months
Thanks: 35839 time(s)
Russian Federation


Приятный релиз с прото-металлическим-панкушным вокалом.
Go to the top of the page
  Insert nick Quick quote
+Quote Post
post Nov 20 2019, 11:43:38
Post #3

Правь статус, ####!111
**************
Group: Металариец
Posts: 44,506
Releases: 688
On Forums: 10 years 6 months
Thanks: 35839 time(s)
Russian Federation


Кручинин, быро бери, здесь все как ты полюбляешь.
Go to the top of the page
  Insert nick Quick quote
+Quote Post

Reply to this topicStart new topic
1 User(s) are reading this topic (1 Guests and 0 Anonymous Users)
0 Members:

 



- Lo-Fi Version Support form
Copyrights and abuse reports form
Time is now: 10th December 2019 - 11:36:08