Welcome Guest ( Log In | Register )

> И неформату есть предел.

Рэп/хип-хоп/шансон/поп удаляются. Для них есть свои порталы.

> Second Oracle - Second Oracle (2019), Psychedelic/Acid/Occult Rock
post Nov 19 2019, 10:01:56
Post #1

Правь статус, ####!111
**************
Group: Металариец
Posts: 44,528
Releases: 688
On Forums: 10 years 6 months
Thanks: 35846 time(s)
Russian Federation


(IMG:http://metalarea.org/images/audiocovers/2019_Nov/acov_tid330536_thumb.jpg)

*Artist: Second Oracle
*Album: Second Oracle
*Year: 2019
*Genre: Psychedelic/Acid/Occult Rock
*Country: Sweden (IMG:http://metalarea.org/forum/style_images/flags/Sweden.png)
*Format: mp3@CBR320kbps
*Size: 93MB

Tracklist:
1. The Oracle Speaks 02:59
2. ...of the Fall of the Swift Ship 08:04
3. Akta min aura 03:53
4. Seabird's Lament 04:26
5. Child of Fire (Doomedagen I) 04:59
6. New Child, New Prophecy 07:15
7. The Common Heart of the Earth Dragon 03:25
8. Caravan of Hope 11:09
******************************
Total playing time: 46:10



Technical info
(IMG:http://metalarea.org/images/spectrogram/2019_Nov/794064d84abd303c0dc27ac87c302e8d.png)
Input File: 01 - The Oracle Speaks....mp3
Channels : 2
Sample Rate : 44100
Precision : 16-bit
Duration : 00:02:59.71 = 7925035 samples = 13478 CDDA sectors
File Size : 7.24M
Bit Rate : 322k
Sample Encoding: MPEG audio (layer I, II or III)
Comments :
Title=The Oracle Speaks...
Artist=Second Oracle
Album=Second Oracle
Tracknumber=1/8
Year=2019
Genre=Alternative/Indie
Discnumber=1/1



Register


Thanks:
Go to the top of the page
  Insert nick Quick quote
+Quote Post
 
Start new topic
Replies (1 - 1)
post Nov 20 2019, 10:06:02
Post #2

Правь статус, ####!111
**************
Group: Металариец
Posts: 44,528
Releases: 688
On Forums: 10 years 6 months
Thanks: 35846 time(s)
Russian Federation


Сабж представляет собой сборную солянку стилей, но сделанную вкусно.
Go to the top of the page
  Insert nick Quick quote
+Quote Post

Reply to this topicStart new topic
1 User(s) are reading this topic (1 Guests and 0 Anonymous Users)
0 Members:

 



- Lo-Fi Version Support form
Copyrights and abuse reports form
Time is now: 11th December 2019 - 03:39:46