Welcome Guest ( Log In | Register )

> Releases Upload / Добавление релизов

Добавить релиз тут / Click here to add release
Рекомендованные обменники / Recommended file shares

 
Reply to this topicStart new topic
> Scintillescent - Dread [ep] (2019), Symphonic/Melodic Black Metal
post Nov 19 2019, 21:06:54
Post #1

MDM-Thrash Metal
**************
Group: Металариец
Posts: 9,123
Releases: 754
From: Одесса
On Forums: 12 years 4 months
Thanks: 20109 time(s)
Ukraine


(IMG:http://metalarea.org/images/audiocovers/2019_Nov/acov_tid330554_thumb.jpg)

*Artist: Scintillescent
*Album: Dread [ep]
*Year: 2019
*Genre: Symphonic/Melodic Black Metal
*Country: New Zealand (IMG:http://metalarea.org/forum/style_images/flags/New%20Zealand.png)
*Format: mp3@CBR320kbps
*Size: 19MB

Tracklist:
1. Dread 04:17
2. Breakneck 03:46
******************************
Total playing time: 8:03



(IMG:http://metalarea.org/images/youtube.png)

Technical info
(IMG:http://metalarea.org/images/spectrogram/2019_Nov/a37609a24aecb59f4dfbb16d5e09cbab.png)
Input File: 02_scintillescent_breakneck.mp3
Channels : 2
Sample Rate : 44100
Precision : 16-bit
Duration : 00:03:46.47 = 9987371 samples = 16985.3 CDDA sectors
File Size : 9.31M
Bit Rate : 329k
Sample Encoding: MPEG audio (layer I, II or III)
Comments :
Title=Breakneck
Artist=Scintillescent
Album=Dread (EP)
Tracknumber=2
Year=2019



Register


Go to the top of the page
  Insert nick Quick quote
+Quote Post

Reply to this topicStart new topic
2 User(s) are reading this topic (2 Guests and 0 Anonymous Users)
0 Members:

 



- Lo-Fi Version Support form
Copyrights and abuse reports form
Time is now: 13th December 2019 - 03:54:09