Welcome Guest ( Log In | Register )

> Wolvencrown - Of Bark And Ash (2019), Atmospheric Black Metal
post Nov 21 2019, 03:03:47
Post #1

Правь статус, ####!111
**************
Group: Металариец
Posts: 4,182
Releases: 1117
From: Brazil
On Forums: 7 years 11 months
Thanks: 41299 time(s)
Brazil


(IMG:https://metalarea.org/images/audiocovers/2019_Nov/acov_tid330587_thumb.jpg)

*Artist: Wolvencrown
*Album: Of Bark And Ash
*Year: 2019
*Genre: Atmospheric Black Metal
*Country: United Kingdom (IMG:https://metalarea.org/forum/style_images/flags/United%20Kingdom.png)
*Format: mp3@CBR320kbps
*Size: 105MB

Tracklist:
1. Earths Eternal Dawn
2. 1194 pt.I
3. 1194 pt.II
4. Infernal Throne
5. Of Bark and Ash
6. Towards Broken Depths
7. Destined
8. S.A.D.
******************************
Total playing time: 45:06



Extended info
Avantgarde Music

From the heart of the Midlands hail Wolvencrown, black metal quintet born in 2015 in Nottingham. Following the release of Wolvencrown, their very promising digital self-released ep, in 2017, the band entered the studio in their hometown and started recording what would become their debut studio album.
Of Bark And Ash is the result of two years of hard work, during which the band took every interesting hint they started to develop in their ep, and worked to make it better. And indeed they succeeded. Wolvencrown debut is packed with good riffs and inspiring melodies, where the generous use of keyboards perfectly fits the naturalistic atmosphere.
Their interest in Nature and the emotions she conveys, together with the most romantic feelings of man, bring Wolvencrown close to the current English black metal scene, and the band can righteously sit among their peers Winterfylleth, Wodensthrone and Fen.
If nature, melodies and feelings of longing and yearning are what you crave, then you need to look no further. Of Bark And Ash is the answer. Wolvencrown debut will be out digitally, on cd and on vinyl next December.


Technical info
(IMG:https://metalarea.org/images/spectrogram/2019_Nov/ccdc043d2ae3c3fc93073fc67861b062.png)
Input File: 01 Earths Eternal Dawn.mp3
Channels : 2
Sample Rate : 44100
Precision : 16-bit
Duration : 00:04:14.08 = 11204928 samples = 19056 CDDA sectors
File Size : 10.2M
Bit Rate : 320k
Sample Encoding: MPEG audio (layer I, II or III)
Comments :
Title=Earths Eternal Dawn
Artist=Wolvencrown
Album=Of Bark and Ash
Tracknumber=1
Year=2019



Register


Go to the top of the page
  Insert nick Quick quote
+Quote Post
 
Start new topic
Replies (1 - 4)
post Nov 21 2019, 11:32:22
Post #2

I love Sushi
******
Group: Металариец
Posts: 649
Releases: 0
From: Vienna
On Forums: 10 years 6 months
Thanks: 131 time(s)
Austria


Wolves don't bark.
Thanks anyway


Thanks:
Go to the top of the page
  Insert nick Quick quote
+Quote Post
post Nov 21 2019, 12:58:47
Post #3

Два Литра
**
Group: Завсегдатай
Posts: 133
Releases: 0
From: TheМля
On Forums: 13 years 4 months
Thanks: 51 time(s)
Belarus


бэндкамп обнадежил.
Go to the top of the page
  Insert nick Quick quote
+Quote Post
post Nov 23 2019, 12:35:49
Post #4

Ёлд ХеллоВяйне
Group Icon
Group: V.I.P
Posts: 28,591
Releases: 133
From: Питер
On Forums: 13 years 3 months
Thanks: 16395 time(s)
Russian Federation


QUOTE(Narasimha @ 21st November 2019 - 13:32:22) *
Wolves don't bark.


Neither perform in circus (IMG:style_emoticons/default/1488.gif)
Go to the top of the page
  Insert nick Quick quote
+Quote Post
post Nov 23 2019, 12:51:01
Post #5

Волк без яблока
**************
Group: Металариец
Posts: 13,433
Releases: 108
From: Санкт-Петербург
On Forums: 13 years 4 months
Thanks: 15434 time(s)
Russian Federation


ЦИТАТА(Narasimha @ 21st November 2019 - 13:32:22) *
Wolves don't bark.

Bark as in tree bark, I guess (IMG:style_emoticons/default/smile4.gif)
Go to the top of the page
  Insert nick Quick quote
+Quote Post

Reply to this topicStart new topic
1 User(s) are reading this topic (1 Guests and 0 Anonymous Users)
0 Members:

 



- Lo-Fi Version Support form
Copyrights and abuse reports form
Time is now: 26th January 2020 - 22:08:09