Welcome Guest ( Log In | Register )

> И неформату есть предел.

Рэп/хип-хоп/шансон/поп удаляются. Для них есть свои порталы.

 
Reply to this topicStart new topic
> Dhidalah - Threshold (2019), Psychedelic/Space Rock/Heavy Psych
post Nov 21 2019, 08:29:05
Post #1

Правь статус, ####!111
**************
Group: Металариец
Posts: 44,506
Releases: 688
On Forums: 10 years 6 months
Thanks: 35839 time(s)
Russian Federation


(IMG:http://metalarea.org/images/audiocovers/2019_Nov/acov_tid330591_thumb.jpg)

*Artist: Dhidalah
*Album: Threshold
*Year: 2019
*Genre: Psychedelic/Space Rock/Heavy Psych
*Country: Japan (IMG:http://metalarea.org/forum/style_images/flags/Japan.png)
*Format: mp3@CBR320kbps
*Size: 82MB

Tracklist:
1. Neuer Typ 09:45
2. Adamski 05:10
3. Jovian Sky 09:33
4. A.U.M 10:25
******************************
Total playing time: 34:53



Technical info
(IMG:http://metalarea.org/images/spectrogram/2019_Nov/fb81f845eb0e8c04d5651482cb5773f5.png)
Input File: 01 Neuer Typ.mp3
Channels : 2
Sample Rate : 44100
Precision : 16-bit
Duration : 00:09:45.36 = 25814288 samples = 43901.9 CDDA sectors
File Size : 24.1M
Bit Rate : 329k
Sample Encoding: MPEG audio (layer I, II or III)
Comments :
Title=Neuer Typ
Artist=Dhidalah
Album=Threshold
Tracknumber=1
Year=2019
Genre=Psychedelic Rock / Space Rock



Register


Thanks:
Go to the top of the page
  Insert nick Quick quote
+Quote Post

Reply to this topicStart new topic
1 User(s) are reading this topic (1 Guests and 0 Anonymous Users)
0 Members:

 



- Lo-Fi Version Support form
Copyrights and abuse reports form
Time is now: 10th December 2019 - 11:32:10