Welcome Guest ( Log In | Register )

> И неформату есть предел.

Рэп/хип-хоп/шансон/поп удаляются. Для них есть свои порталы.

> Bamwise - Soundproof (2017), Dub/Electronic/Reggae
post Nov 21 2019, 12:15:28
Post #1


Group Icon
Group: S-moderation team
Posts: 12,903
Releases: 1439
From: Zagreb
On Forums: 8 years 9 months
Thanks: 56005 time(s)
Croatia


(IMG:https://metalarea.org/images/audiocovers/2019_Nov/acov_tid330606_thumb.jpg)

*Artist: Bamwise
*Album: Soundproof
*Year: 2017
*Genre: Dub/Electronic/Reggae
*Country: Croatia (IMG:https://metalarea.org/forum/style_images/flags/Croatia.png)
*Format: mp3@VBR270kbps
*Size: 73MB

Tracklist:
1. Tarantino 05:04
2. Fury 04:17
3. Down Under 05:00
4. Strange Fis 04:25
5. Stinger 04:02
6. Sound Engineer 06:05
7. Meditation 05:33
8. Run From Sound 04:26
******************************
Total playing time: 38:52




Extended info
Bamwise is a six-piece band from Zagreb, Croatia. It’s a collaboration of five musicians and a VJ gathered with an intention to play electronic dub music. The band is a combination of synths, drums, bass, guitar, vocal, effects and video art empowered by the idea of inspiring people to listen, think and act for themselves.


Technical info
(IMG:https://metalarea.org/images/spectrogram/2019_Nov/f35c702dea578011a88ccea26522f8d3.png)
Input File: 02-bamwise-fury.mp3
Channels : 2
Sample Rate : 44100
Precision : 16-bit
Duration : 00:04:19.27 = 11433587 samples = 19444.9 CDDA sectors
File Size : 8.53M
Bit Rate : 263k
Sample Encoding: MPEG audio (layer I, II or III)
Comments :
Title=Fury
Artist=Bamwise
Album=Soundproof
Tracknumber=2/8
Year=2017
Genre=Reggae



Register


Go to the top of the page
  Insert nick Quick quote
+Quote Post
 
Start new topic
Replies (1 - 3)
post Nov 21 2019, 12:25:06
Post #2

Правь статус, ####!111
**************
Group: Металариец
Posts: 44,508
Releases: 688
On Forums: 10 years 6 months
Thanks: 35843 time(s)
Russian Federation


Will check it out asap.

Love some trippy electronics.

Will mix it with "Inhale - wait - exhale - smile" ritual (IMG:style_emoticons/default/genius.gif)


Thanks:
Go to the top of the page
  Insert nick Quick quote
+Quote Post
post Nov 21 2019, 12:36:41
Post #3


Group Icon
Group: S-moderation team
Posts: 12,903
Releases: 1439
From: Zagreb
On Forums: 8 years 9 months
Thanks: 56005 time(s)
Croatia


I hope you have some good speakers. Because this is bassy. And should be listened loud. (IMG:style_emoticons/default/smile3.gif)
Go to the top of the page
  Insert nick Quick quote
+Quote Post
post Nov 21 2019, 12:40:17
Post #4

Правь статус, ####!111
**************
Group: Металариец
Posts: 44,508
Releases: 688
On Forums: 10 years 6 months
Thanks: 35843 time(s)
Russian Federation


ЦИТАТА(Borderline1991 @ Nov 21 2019, 14:36:41) *
I hope you have some good speakers. Because this is bassy. And should be listened loud. (IMG:style_emoticons/default/smile3.gif)


Maximum volume yields maximum results (IMG:style_emoticons/default/25.gif)
Go to the top of the page
  Insert nick Quick quote
+Quote Post

Reply to this topicStart new topic
1 User(s) are reading this topic (1 Guests and 0 Anonymous Users)
0 Members:

 



- Lo-Fi Version Support form
Copyrights and abuse reports form
Time is now: 10th December 2019 - 12:27:19