Welcome Guest ( Log In | Register )

> Void Vator - Stranded (2019), Heavy Metal
post Nov 21 2019, 13:03:30
Post #1

Serial Uploader
Group Icon
Group: V.I.P
Posts: 37,203
Releases: 35386
From: Lithuania
On Forums: 12 years 4 weeks
Thanks: 421185 time(s)
Lithuania


(IMG:https://metalarea.org/images/audiocovers/2019_Nov/acov_tid330613_thumb.jpg)

*Artist: Void Vator
*Album: Stranded
*Year: 2019
*Genre: Heavy Metal
*Country: United States (IMG:https://metalarea.org/forum/style_images/flags/United%20States.png)
*Format: mp3@CBR320kbps
*Size: 69MB

Tracklist:
01. Put Away Wet 03:29
02. Toxic Waste 04:19
03. Nothing To Lose 03:43
04. Inside Out 03:58
05. Everything Sucks 02:21
06. Come To Hand 04:24
07. Stranded 03:31
08. Monster 04:16
******************************
Total playing time: 30:01





Technical info
(IMG:https://metalarea.org/images/spectrogram/2019_Nov/7e0f947dabc5c69181a0dadf8a31ec90.png)
Input File: 2 - Toxic Waste.mp3
Channels : 2
Sample Rate : 44100
Precision : 16-bit
Duration : 00:04:19.23 = 11431911 samples = 19442 CDDA sectors
File Size : 10.5M
Bit Rate : 325k
Sample Encoding: MPEG audio (layer I, II or III)
Comments :
Title=Toxic Waste
Artist=Void Vator
Album=Stranded
Tracknumber=2/8
Year=2019
Genre=Heavy Metal
Discnumber=1/1



Register


Go to the top of the page
  Insert nick Quick quote
+Quote Post
 
Start new topic
Replies (1 - 4)
post Nov 21 2019, 15:54:28
Post #2

South Of Heaven /адепт ВУДУ
**************
Group: Металариец
Posts: 13,960
Releases: 9
On Forums: 10 years 3 months
Thanks: 5479 time(s)
Unknown


Дебютник, короткий и ясный, как выстрел, слушабельно.


Thanks:
(1) Foneg,
Go to the top of the page
  Insert nick Quick quote
+Quote Post
post Nov 21 2019, 17:21:15
Post #3

Шесть Литров
******
Group: Металариец
Posts: 607
Releases: 0
On Forums: 11 years 24 minutes
Thanks: 149 time(s)
Ukraine


Отлтичный альбом!!

Отлтичный альбом!!
Go to the top of the page
  Insert nick Quick quote
+Quote Post
post Nov 26 2019, 17:29:50
Post #4

South Of Heaven /адепт ВУДУ
**************
Group: Металариец
Posts: 13,960
Releases: 9
On Forums: 10 years 3 months
Thanks: 5479 time(s)
Unknown


ЦИТАТА(Витон @ Nov 21 2019, 19:21:15) *
Отлтичный альбом!!

Отлтичный альбом!!

Я два раза не повторяю, не повторяю (IMG:style_emoticons/default/smile1.gif)


Thanks:
Go to the top of the page
  Insert nick Quick quote
+Quote Post
post Nov 27 2019, 12:33:03
Post #5

South Of Heaven /адепт ВУДУ
**************
Group: Металариец
Posts: 13,960
Releases: 9
On Forums: 10 years 3 months
Thanks: 5479 time(s)
Unknown


Не проходим мимо, хорошего уровня новодельный хэви.
Go to the top of the page
  Insert nick Quick quote
+Quote Post

Reply to this topicStart new topic
1 User(s) are reading this topic (1 Guests and 0 Anonymous Users)
0 Members:

 



- Lo-Fi Version Support form
Copyrights and abuse reports form
Time is now: 6th July 2020 - 07:43:23