Welcome Guest ( Log In | Register )

> Releases Upload / Добавление релизов

Добавить релиз тут / Click here to add release
Рекомендованные обменники / Recommended file shares

 
Reply to this topicStart new topic
> Neverwinter - Air Castle (2019), Symphonic Metal
post Nov 22 2019, 04:10:30
Post #1

Правь статус, ####!111
**************
Group: Металариец
Posts: 19,782
Releases: 13414
From: Г.Харьков
On Forums: 7 years 6 months
Thanks: 232030 time(s)
Unknown


(IMG:http://metalarea.org/images/audiocovers/2019_Nov/acov_tid330656_thumb.jpg)

*Artist: Neverwinter
*Album: Air Castle
*Year: 2019
*Genre: Symphonic Metal
*Country: Brazil (IMG:http://metalarea.org/forum/style_images/flags/Brazil.png)
*Format: mp3@CBR320kbps
*Size: 108MB

Tracklist:
01. Decay
02. Opium
03. Fallen
04. By the Flames
05. Stains
06. Storm Above
07. Murdering Dreams
08. No Tomorrow
09. Distance
10. Air Castle
******************************
Total playing time: 46:51


(IMG:http://metalarea.org/images/youtube.png)

Extended info
Fernanda Zys
Higor Hoenig
Nando Demetri
Scardino Augusto
Renato Fujimoto
William Jefferson


Technical info
(IMG:http://metalarea.org/images/spectrogram/2019_Nov/401da3d5831b05a7b3269a1d4b0d5c1a.png)
Input File: 04. By the Flames.mp3
Channels : 2
Sample Rate : 44100
Precision : 16-bit
Duration : 00:06:05.55 = 16120931 samples = 27416.5 CDDA sectors
File Size : 14.8M
Bit Rate : 323k
Sample Encoding: MPEG audio (layer I, II or III)
Comments :
Title=By the Flames
Artist=Neverwinter
Album=Air Castle
Tracknumber=4
Year=2019-11-22
Discnumber=1



Register


Go to the top of the page
  Insert nick Quick quote
+Quote Post

Reply to this topicStart new topic
1 User(s) are reading this topic (1 Guests and 0 Anonymous Users)
0 Members:

 



- Lo-Fi Version Support form
Copyrights and abuse reports form
Time is now: 7th December 2019 - 11:06:18