Welcome Guest ( Log In | Register )

> Releases Upload / Добавление релизов

Добавить релиз тут / Click here to add release
Рекомендованные обменники / Recommended file shares

> Condemned To Dream - Black Emerald Cold (2019), Melodic Death Metal
post Nov 22 2019, 05:31:53
Post #1

Правь статус, ####!111
**************
Group: Металариец
Posts: 19,855
Releases: 13469
From: Г.Харьков
On Forums: 7 years 7 months
Thanks: 232978 time(s)
Unknown


(IMG:http://metalarea.org/images/audiocovers/2019_Nov/acov_tid330659_thumb.jpg)

*Artist: Condemned To Dream
*Album: Black Emerald Cold
*Year: 2019
*Genre: Melodic Death Metal
*Country: United States (IMG:http://metalarea.org/forum/style_images/flags/United%20States.png)
*Format: mp3@CBR320kbps
*Size: 115MB

Tracklist:
1. I Become 06:22
2. The Yawning Depths Inside 04:07
3. Lost 03:59
4. The Rest of Me 06:18
5. The World Offered 03:55
6. Infernal Design 04:55
7. Before the Altar of Victims and Fools 05:03
8. Words 05:46
9. Unbeliever 04:06
10. Pestis 05:31
******************************
Total playing time: 50:02




Extended info
Jonas Schütz Drums
See also: Diësis, Eraserhead, Sacrosanct, Sapiency
Mark Coglan Guitars, Vocals


Technical info
(IMG:http://metalarea.org/images/spectrogram/2019_Nov/53cfdade49d57d0c9e09663fd14467d9.png)
Input File: 04 - The Rest of Me.mp3
Channels : 2
Sample Rate : 44100
Precision : 16-bit
Duration : 00:06:18.09 = 16673813 samples = 28356.8 CDDA sectors
File Size : 15.2M
Bit Rate : 322k
Sample Encoding: MPEG audio (layer I, II or III)
Comments :
Title=The Rest of Me
Artist=Condemned to Dream
Album=Black Emerald Cold
Tracknumber=4
Year=2019-11-22
Discnumber=1



Register


Go to the top of the page
  Insert nick Quick quote
+Quote Post
 
Start new topic
Replies (1 - 4)
post Nov 22 2019, 17:17:18
Post #2

тебе 29, а ты все реверсами балуешься
***********
Group: Металариец
Posts: 1,795
Releases: 4
On Forums: 11 years 4 months
Thanks: 533 time(s)
Russian Federation


Включил и выключил через 3 секунды - вокал (IMG:style_emoticons/default/22.gif) (IMG:style_emoticons/default/22.gif) (IMG:style_emoticons/default/22.gif) (IMG:style_emoticons/default/22.gif)
Go to the top of the page
  Insert nick Quick quote
+Quote Post
post Nov 23 2019, 01:39:00
Post #3

Group: Дух
Posts: 2
Releases: 0
On Forums: 1 year 1 week
Thanks: 0 time(s)
Russian Federation


ЦИТАТА(Foneg @ Nov 22 2019, 17:17:18) *

Женский.
Go to the top of the page
  Insert nick Quick quote
+Quote Post
post Nov 23 2019, 10:40:36
Post #4

Тридцать лет на борту "Тяжёлого" крейсера
**************
Group: Металариец
Posts: 2,129
Releases: 0
From: Питер
On Forums: 12 years 6 months
Thanks: 549 time(s)
Russian Federation


ну, вокал бывает и похуже
а музло как музло, ничего примечательного
Go to the top of the page
  Insert nick Quick quote
+Quote Post
post Nov 23 2019, 11:11:08
Post #5

Ёлд ХеллоВяйне
Group Icon
Group: V.I.P
Posts: 28,498
Releases: 133
From: Питер
On Forums: 13 years 1 month
Thanks: 16256 time(s)
Russian Federation


Стандартная второсортная шведа, ничего ужасного в вокале не приметил.
Go to the top of the page
  Insert nick Quick quote
+Quote Post

Reply to this topicStart new topic
1 User(s) are reading this topic (1 Guests and 0 Anonymous Users)
0 Members:

 



- Lo-Fi Version Support form
Copyrights and abuse reports form
Time is now: 13th December 2019 - 03:36:47