Welcome Guest ( Log In | Register )

> Releases Upload / Добавление релизов

Добавить релиз тут / Click here to add release
Рекомендованные обменники / Recommended file shares

 
Reply to this topicStart new topic
> Vesperith - Vesperith (2019), Atmospheric Black Metal/Ambient
post Nov 22 2019, 06:03:58
Post #1

Правь статус, ####!111
**************
Group: Металариец
Posts: 19,792
Releases: 13422
From: Г.Харьков
On Forums: 7 years 6 months
Thanks: 232230 time(s)
Unknown


(IMG:http://metalarea.org/images/audiocovers/2019_Nov/acov_tid330660_thumb.jpg)

*Artist: Vesperith
*Album: Vesperith
*Year: 2019
*Genre: Atmospheric Black Metal/Ambient
*Country: Finland (IMG:http://metalarea.org/forum/style_images/flags/Finland.png)
*Format: mp3@CBR320kbps
*Size: 105MB

Tracklist:
1. The Magi 08:56
2. Fractal Flesh 06:37
3. Refractions 04:34
4. Valohämärä 07:50
5. Quintessence 10:31
6. Solar Flood 07:27
******************************
Total playing time: 45:55




Extended info
Sariina Tani = Primus motor, Vocals, Songwriting, Lyrics, Artwork, Animation



Technical info
(IMG:http://metalarea.org/images/spectrogram/2019_Nov/5f72060e75a0e59aa460d7bc22b01a9c.png)
Input File: 04 - Valohämärä.mp3
Channels : 2
Sample Rate : 44100
Precision : 16-bit
Duration : 00:07:50.86 = 20764794 samples = 35314.3 CDDA sectors
File Size : 18.9M
Bit Rate : 321k
Sample Encoding: MPEG audio (layer I, II or III)
Comments :
Title=Valohämärä
Artist=Vesperith
Album=Vesperith
Tracknumber=4
Year=2019-11-22
Discnumber=1



Register


Go to the top of the page
  Insert nick Quick quote
+Quote Post

Reply to this topicStart new topic
1 User(s) are reading this topic (1 Guests and 0 Anonymous Users)
0 Members:

 



- Lo-Fi Version Support form
Copyrights and abuse reports form
Time is now: 8th December 2019 - 14:34:15