Welcome Guest ( Log In | Register )

> Releases Upload / Добавление релизов

Добавить релиз тут / Click here to add release
Рекомендованные обменники / Recommended file shares

> Scars Of Sense - Believe In Sound (2019), Heavy/Folk Metal
post Nov 22 2019, 07:32:49
Post #1

Правь статус, ####!111
**************
Group: Металариец
Posts: 19,863
Releases: 13483
From: Г.Харьков
On Forums: 7 years 7 months
Thanks: 233195 time(s)
Unknown


(IMG:http://metalarea.org/images/audiocovers/2019_Nov/acov_tid330661_thumb.jpg)

*Artist: Scars Of Sense
*Album: Believe In Sound
*Year: 2019
*Genre: Heavy/Folk Metal
*Country: United Kingdom (IMG:http://metalarea.org/forum/style_images/flags/United%20Kingdom.png)
*Format: mp3@CBR320kbps
*Size: 88MB

Tracklist:
1. Transcend Ur Reality 03:50
2. Re Set - Next Level 03:22
3. Tales of Not so Old 03:39
4. Trash 03:25
5. The Long Road 03:33
6. Temporary World 03:51
7. Heal the Hurts 03:07
8. Berlin 03:56
9. Call of My Spirit 04:17
10. Shine 04:30
******************************
Total playing time: 37:30



Extended info
Andi - Guitar/Lead Vocals
Alfie - Bass/Backing Vocals
Joe - Drums
Harriette - Violins



Technical info
(IMG:http://metalarea.org/images/spectrogram/2019_Nov/cda88a2b24e7cf866f608c7ed08efdac.png)
Input File: 06 - Temporary World.mp3
Channels : 2
Sample Rate : 44100
Precision : 16-bit
Duration : 00:03:51.33 = 10201521 samples = 17349.5 CDDA sectors
File Size : 9.49M
Bit Rate : 328k
Sample Encoding: MPEG audio (layer I, II or III)
Comments :
Title=Temporary World
Artist=Scars of Sense
Album=Believe in Sound
Tracknumber=6
Year=2019-11-22
Genre=Metal
Discnumber=1



Register


Go to the top of the page
  Insert nick Quick quote
+Quote Post
 
Start new topic
Replies (1 - 2)
post Nov 22 2019, 13:57:50
Post #2

hearer & reader
**************
Group: Металариец
Posts: 8,242
Releases: 111
From: Moscow
On Forums: 12 years 3 months
Thanks: 7775 time(s)
Russian Federation


ЦИТАТА(Samaritianin @ Nov 22 2019, 09:32:49) *
Harriette - Violinsyoutube

Долго над этим размышлял (IMG:style_emoticons/default/headcrab.png)
А дудок нет. Непорядок.
Go to the top of the page
  Insert nick Quick quote
+Quote Post
post Nov 22 2019, 22:35:30
Post #3

Правь статус, ####!111
**************
Group: Металариец
Posts: 19,863
Releases: 13483
From: Г.Харьков
On Forums: 7 years 7 months
Thanks: 233195 time(s)
Unknown


ЦИТАТА(AHBAnep @ 22nd November 2019 - 14:57:50) *
А дудок нет. Непорядок.

Подуди сам.Для порядка.
Go to the top of the page
  Insert nick Quick quote
+Quote Post

Reply to this topicStart new topic
2 User(s) are reading this topic (2 Guests and 0 Anonymous Users)
0 Members:

 



- Lo-Fi Version Support form
Copyrights and abuse reports form
Time is now: 14th December 2019 - 03:15:58