Welcome Guest ( Log In | Register )

> Ozzy Osbourne - Straight To Hell [single] (2019), Heavy Metal (D)
post Nov 22 2019, 07:58:21
Post #1

Правь статус, ####!111
**************
Group: Металариец
Posts: 46,486
Releases: 718
On Forums: 11 years 3 days
Thanks: 39019 time(s)
Russian Federation


(IMG:http://metalarea.org/images/audiocovers/2019_Nov/acov_tid330665_thumb.jpg)

*Artist: Ozzy Osbourne
*Album: Straight To Hell [single]
*Year: 2019
*Genre: Heavy Metal
*Country: United Kingdom (IMG:http://metalarea.org/forum/style_images/flags/United%20Kingdom.png)
*Format: mp3@CBR320kbps
*Size: 9MB

Tracklist:
1. Straight To Hell 03:45
******************************
Total playing time: 3:45

(IMG:http://metalarea.org/images/youtube.png)

Technical info
(IMG:http://metalarea.org/images/spectrogram/2019_Nov/2a42f67ee2eae5a14d06a91313235423.png)
Input File: 01 Straight to Hell.mp3
Channels : 2
Sample Rate : 44100
Precision : 16-bit
Duration : 00:03:45.11 = 9927307 samples = 16883.2 CDDA sectors
File Size : 9.01M
Bit Rate : 320k
Sample Encoding: MPEG audio (layer I, II or III)
Comments :
Title=Straight to Hell
Artist=Ozzy Osbourne
Album=Straight to Hell
Tracknumber=01/01
Year=2019-19-20
Discnumber=1/1



Register


Go to the top of the page
  Insert nick Quick quote
+Quote Post
3 Pages V  < 1 2 3  
Start new topic
Replies (60 - 66)
post Dec 19 2019, 16:43:48
Post #61
BAN
Banned till
Aug 20 2020, 18:46:06



премьера



Thanks:
Go to the top of the page
  Insert nick Quick quote
+Quote Post
post Dec 19 2019, 18:11:10
Post #62

Туфлєблек то є файно
**************
Group: Металариец
Posts: 2,095
Releases: 0
From: Україна
On Forums: 11 years 4 months
Thanks: 1419 time(s)
Ukraine


ЦИТАТА(Tarelka @ Dec 19 2019, 18:43:48) *
премьера


АХ$$$НАЯ ПЕСНЯ (IMG:style_emoticons/default/pray.gif) (IMG:style_emoticons/default/pray.gif) (IMG:style_emoticons/default/pray.gif)
Go to the top of the page
  Insert nick Quick quote
+Quote Post
post Dec 19 2019, 19:46:19
Post #63

Правь статус, ####!111
**************
Group: Металариец
Posts: 3,086
Releases: 0
From: Москва
On Forums: 12 years 3 months
Thanks: 481 time(s)
Russian Federation


ЦИТАТА(Samhain @ Nov 22 2019, 20:55:47) *
Сам факт того, что дед ещё не в Вальгалле с Одином, заставляет меня проникнуться глубочайшим увожением к этому ветерану.
А что и с кем именно он там выпускает - на[мат->бан], рили, хоть клауд, хоть госпел, хоть копрограйнд.


Ну Оззи всегда умел выбирать хороших музыкантов .
Go to the top of the page
  Insert nick Quick quote
+Quote Post
post Jan 6 2020, 16:33:42
Post #64
BAN
Banned till
Aug 20 2020, 18:46:06



Go to the top of the page
  Insert nick Quick quote
+Quote Post
post Jan 6 2020, 16:35:29
Post #65

Правь статус, ####!111
**************
Group: Металариец
Posts: 46,486
Releases: 718
On Forums: 11 years 3 days
Thanks: 39019 time(s)
Russian Federation


Задорно тарахтящий угаром одноименный трэк от venom 100500 раз лучше.
Go to the top of the page
  Insert nick Quick quote
+Quote Post
post Jan 8 2020, 21:59:59
Post #66

Правь статус, ####!111
**************
Group: Металариец
Posts: 46,486
Releases: 718
On Forums: 11 years 3 days
Thanks: 39019 time(s)
Russian Federation


Ozzy Osbourne - Ordinary Man (Single) (10.01.2020)

(IMG:https://c.radikal.ru/c02/2001/7c/129a381b8604.jpg)
Go to the top of the page
  Insert nick Quick quote
+Quote Post
post Jan 9 2020, 22:23:38
Post #67
BAN
Banned till
Aug 20 2020, 18:46:06



Озик фактически учится заново ходить

(IMG:https://i.pinimg.com/564x/a2/3d/1d/a23d1d1b9f5ac7179af41d0dac7eea16.jpg)

Go to the top of the page
  Insert nick Quick quote
+Quote Post

3 Pages V  < 1 2 3
Reply to this topicStart new topic
1 User(s) are reading this topic (1 Guests and 0 Anonymous Users)
0 Members:

 



- Lo-Fi Version Support form
Copyrights and abuse reports form
Time is now: 4th June 2020 - 20:56:47