Welcome Guest ( Log In | Register )

> И неформату есть предел.

Рэп/хип-хоп/шансон/поп удаляются. Для них есть свои порталы.

> Sleep Token - Sundowning (2019), Progressive/Alternative Metal
post Nov 22 2019, 08:30:21
Post #1

Правь статус, ####!111
**************
Group: Металариец
Posts: 44,506
Releases: 688
On Forums: 10 years 6 months
Thanks: 35840 time(s)
Russian Federation


(IMG:http://metalarea.org/images/audiocovers/2019_Nov/acov_tid330669_thumb.jpg)

*Artist: Sleep Token
*Album: Sundowning
*Year: 2019
*Genre: Progressive/Alternative Metal
*Country: United Kingdom (IMG:http://metalarea.org/forum/style_images/flags/United%20Kingdom.png)
*Format: mp3@CBR320kbps
*Size: 124MB

Tracklist:
1. The Night Does Not Belong To God 05:03
2. The Offering 05:49
3. Levitate 04:58
4. Dark Signs 04:28
5. Higher 05:21
6. Take Aim 03:39
7. Give 03:56
8. Gods 03:25
9. Sugar 04:52
10. Say That You Will 05:03
11. Drag Me Under 03:56
12. Blood Sport 04:07
******************************
Total playing time: 54:37

(IMG:http://metalarea.org/images/youtube.png)
(IMG:http://metalarea.org/images/youtube.png)

Technical info
(IMG:http://metalarea.org/images/spectrogram/2019_Nov/c8e074fe5ab1d0cc1a5e0e9b84d40124.png)
Input File: 01. The Night Does Not Belong To God.mp3
Channels : 2
Sample Rate : 44100
Precision : 16-bit
Duration : 00:05:03.59 = 13388099 samples = 22768.9 CDDA sectors
File Size : 12.1M
Bit Rate : 320k
Sample Encoding: MPEG audio (layer I, II or III)
Comments :
Title=The Night Does Not Belong To God
Artist=Sleep Token
Album=Sundowning
Tracknumber=01/12
Year=2019
Discnumber=1/1



Register


Go to the top of the page
  Insert nick Quick quote
+Quote Post
 
Start new topic
Replies (1 - 7)
post Nov 22 2019, 13:38:40
Post #2

Правь статус, ####!111
**************
Group: Металариец
Posts: 44,506
Releases: 688
On Forums: 10 years 6 months
Thanks: 35840 time(s)
Russian Federation


@320

Register


Register


Thanks:
Go to the top of the page
  Insert nick Quick quote
+Quote Post
post Nov 22 2019, 13:53:59
Post #3

hearer & reader
**************
Group: Металариец
Posts: 8,233
Releases: 111
From: Moscow
On Forums: 12 years 3 months
Thanks: 7766 time(s)
Russian Federation


+Alternative Rock
-Metal
Такой же метал, как Muse


Thanks:
Go to the top of the page
  Insert nick Quick quote
+Quote Post
post Nov 22 2019, 17:42:12
Post #4

Маньяк
**********
Group: Металариец
Posts: 1,101
Releases: 0
On Forums: 8 years 6 months
Thanks: 495 time(s)
Unknown


This is actually surprisingly good, far better than BMTH which is where i'd make the comparison rather than Muse.
Go to the top of the page
  Insert nick Quick quote
+Quote Post
post Nov 22 2019, 18:32:44
Post #5

ядерщик-мясогруз
***
Group: Завсегдатай
Posts: 298
Releases: 5
On Forums: 10 years 9 months
Thanks: 175 time(s)
Russian Federation


Релиз не в тему метала это точно
Go to the top of the page
  Insert nick Quick quote
+Quote Post
post Nov 22 2019, 18:52:35
Post #6

Девять Литров
*********
Group: Металариец
Posts: 981
Releases: 0
From: Харьков
On Forums: 11 years 3 months
Thanks: 283 time(s)
Ukraine


в неформате этому место
Go to the top of the page
  Insert nick Quick quote
+Quote Post
post Nov 26 2019, 17:31:15
Post #7

Мегаманьяк
***********
Group: Металариец
Posts: 1,760
Releases: 0
From: Харьков
On Forums: 10 years 2 months
Thanks: 738 time(s)
Ukraine


Ну, что неформат - это неплохо, но вот это пугает:

ЦИТАТА(Ostinato @ Nov 22 2019, 18:42:12) *
BMTH which is where i'd make the comparison

(IMG:style_emoticons/default/crazy.gif)
Go to the top of the page
  Insert nick Quick quote
+Quote Post
post Nov 28 2019, 02:45:18
Post #8

Мегаманьяк
***********
Group: Металариец
Posts: 1,760
Releases: 0
From: Харьков
On Forums: 10 years 2 months
Thanks: 738 time(s)
Ukraine


Не понял, откуда хайп вокруг альбома в сети. Проговые моменты есть, но все это гораздо менее талантливо, чем у выпустивших новые работы в этом году Leprous, Jolly или Voyager (с которыми их можно условно сравнить). Плюс перебор с балладами (тяжеленькие моменты интереснее слушаются), не самый лучший саунд, да и общая сыроватость материала - вообще чувствуется, что это one-man band. В целом, средненько, да и не слишком оригинально, но не без удачных моментов.
Go to the top of the page
  Insert nick Quick quote
+Quote Post

Reply to this topicStart new topic
1 User(s) are reading this topic (1 Guests and 0 Anonymous Users)
0 Members:

 



- Lo-Fi Version Support form
Copyrights and abuse reports form
Time is now: 10th December 2019 - 11:51:12