Welcome Guest ( Log In | Register )

> Releases Upload / Добавление релизов

Добавить релиз тут / Click here to add release
Рекомендованные обменники / Recommended file shares

 
Reply to this topicStart new topic
> Diploid - Glorify (2019), Powerviolence/Grindcore/Black Metal
post Nov 22 2019, 09:51:16
Post #1

Четыре Литра
****
Group: Металариец
Posts: 326
Releases: 185
On Forums: 7 years 4 months
Thanks: 4646 time(s)
Unknown


(IMG:http://metalarea.org/images/audiocovers/2019_Nov/acov_tid330671_thumb.jpg)

*Artist: Diploid
*Album: Glorify
*Year: 2019
*Genre: Powerviolence/Grindcore/Black Metal
*Country: Australia (IMG:http://metalarea.org/forum/style_images/flags/Australia.png)
*Format: mp3@CBR320kbps
*Size: 59MB

Tracklist:
1. Intrusive 01:35
2. One-Minute Cure 00:25
3. Less 01:14
4. A Natural Death 01:06
5. Daisy's Red Room 01:10
6. Glorify 00:55
7. No Funeral 02:01
8. Homicidal Art 02:15
9. Growing, Learning 00:38
10. Skin Separation 01:33
11. No Current Present 01:45
12. Mind Like Clouds, Yet It's Storming 01:04
13. Dissolve Myself 01:51
14. Grandiose Delusions 00:51
15. The Narrator of Suicide 05:19
******************************
Total playing time: 23:42



Technical info
(IMG:http://metalarea.org/images/spectrogram/2019_Nov/1c2463b45d8363e60b16fd75ec619505.png)
Input File: 1 - Intrusive.mp3
Channels : 2
Sample Rate : 44100
Precision : 16-bit
Duration : 00:01:35.80 = 4224604 samples = 7184.7 CDDA sectors
File Size : 4.10M
Bit Rate : 343k
Sample Encoding: MPEG audio (layer I, II or III)
Comments :
Title=Intrusive
Artist=Diploid
Album=Glorify
Tracknumber=1
Year=2019
Genre=Rock;Metal
Discnumber=1



Register


Go to the top of the page
  Insert nick Quick quote
+Quote Post

Reply to this topicStart new topic
1 User(s) are reading this topic (1 Guests and 0 Anonymous Users)
0 Members:

 



- Lo-Fi Version Support form
Copyrights and abuse reports form
Time is now: 21st January 2020 - 09:16:21