Welcome Guest ( Log In | Register )

> Releases Upload / Добавление релизов

Добавить релиз тут / Click here to add release
Рекомендованные обменники / Recommended file shares

 
Reply to this topicStart new topic
> Me, Meal & Keckett - T'es Où ? Pas Là... [ep] (2018), Death Metal/Grindcore
post Nov 22 2019, 15:38:53
Post #1

Serial Uploader
Group Icon
Group: V.I.P
Posts: 36,589
Releases: 34778
From: Lithuania
On Forums: 11 years 6 months
Thanks: 407228 time(s)
Lithuania


(IMG:https://metalarea.org/images/audiocovers/2019_Nov/acov_tid330675_thumb.jpg)

*Artist: Me, Meal & Keckett
*Album: T'es Où ? Pas Là... [ep]
*Year: 2018
*Genre: Death Metal/Grindcore
*Country: France (IMG:https://metalarea.org/forum/style_images/flags/France.png)
*Format: mp3@CBR320kbps
*Size: 34MB

Tracklist:
01. Big Chick 03:36
02. Rauchen Bedroht Ihre Potenz 03:54
03. Scor-Butt (Piste 5) 02:58
04. Italian Stallion 04:01
******************************
Total playing time: 14:29



(IMG:https://metalarea.org/images/youtube.png)

Technical info
(IMG:https://metalarea.org/images/spectrogram/2019_Nov/bfd5f82322b6c8f694742b764270ea03.png)
Input File: 04. Italian Stallion.mp3
Channels : 2
Sample Rate : 44100
Precision : 16-bit
Duration : 00:04:01.93 = 10669245 samples = 18145 CDDA sectors
File Size : 9.89M
Bit Rate : 327k
Sample Encoding: MPEG audio (layer I, II or III)
Comments :
Title=Italian Stallion
Artist=Me Meal & Keckett
Album=T'es où ? Pas là...
Tracknumber=4
Year=2018



Register


Go to the top of the page
  Insert nick Quick quote
+Quote Post

Reply to this topicStart new topic
1 User(s) are reading this topic (1 Guests and 0 Anonymous Users)
0 Members:

 



- Lo-Fi Version Support form
Copyrights and abuse reports form
Time is now: 10th December 2019 - 00:55:56