Welcome Guest ( Log In | Register )

> Правила / Rules

Тут только для чтения лежат низкобитрейтные (<192kbps) релизы, для которых есть аналоги в высокобитрейтных форумах.

Here goes (and stand in read only mode) low bitrate releases (<192kbps) which were already replaced by high bitrate releases in corresponding forums.

> Thunder And Lightning - Demonicorn (2019), Melodic/Power Metal (D6)
post Nov 22 2019, 17:21:16
Post #1

Каждое ваше "Спасибо" помогает мне понять, что я делаю новости не напрасно.
**************
Group: Металариец
Posts: 2,104
Releases: 1853
From: Одесса
On Forums: 11 years 6 months
Thanks: 16205 time(s)
Ukraine


(IMG:http://metalarea.org/images/audiocovers/2019_Nov/acov_tid330676_thumb.jpg)

*Artist: Thunder And Lightning
*Album: Demonicorn
*Year: 2019
*Genre: Melodic/Power Metal
*Country: Germany (IMG:http://metalarea.org/forum/style_images/flags/Germany.png)
*Format: mp3@CBR128kbps (IMG:http://metalarea.org/images/bit_low.gif)
*Size: 39MB

Tracklist:
1.All Your Lies 06:01
2.Demonicorn 03:27
3.Demmin 05:39
4.The Temple of Death 06:53
5.God for a Day 07:06
6.Heaven's Gate 04:16
7.Salt to the Wounds 03:45
8.Telltale Signs 05:51
******************************
Total playing time: 42:58



Extended info
Line - up:

Robert Rath - Bass
Steve Mittag - Drums (ex-Orth, ex-Agutate)
Marc Wüstenhagen - Guitars, Vocals
Norman Dittmar - Vocals (lead)
Fabrizio Agabiti - Guitars (lead) (Airlines of Terror, ex-Noumeno)

(IMG:https://www.metal-archives.com/images/5/0/6/6/50661_photo.jpg)


Technical info
(IMG:http://metalarea.org/images/spectrogram/2019_Nov/abde5641291368b230a331ae99aa606f.png)
Input File: 6 - Heaven-s Gate.mp3
Channels : 2
Sample Rate : 44100
Precision : 16-bit
Duration : 00:03:46.93 = 10007525 samples = 17019.6 CDDA sectors
File Size : 3.63M
Bit Rate : 128k
Sample Encoding: MPEG audio (layer I, II or III)
Comments :
Title=Heaven's Gate
Artist=Thunder And Lightning
Album=Demonicorn
Tracknumber=6
Year=2019
Genre=Melodic/Power Metal



Register


Go to the top of the page
  Insert nick Quick quote
+Quote Post
 
Start new topic
Replies (1 - 1)
post Nov 22 2019, 22:42:16
Post #2

Наливай!
**************
Group: Металариец
Posts: 5,481
Releases: 27
From: Москва-Бибирево
On Forums: 11 years 8 months
Thanks: 2671 time(s)
Russian Federation


Знаем таких. Только качества подбросьте!
Go to the top of the page
  Insert nick Quick quote
+Quote Post

Причина закрытия (Хогги 05-12-2019):
Closed TopicStart new topic
2 User(s) are reading this topic (2 Guests and 0 Anonymous Users)
0 Members:

 



- Lo-Fi Version Support form
Copyrights and abuse reports form
Time is now: 7th December 2019 - 14:47:55