Welcome Guest ( Log In | Register )

> Ayakasi Kagura - Kikoshi Meshi Tamae (2019), Brutal Death Metal
post Nov 22 2019, 17:40:26
Post #1

Правь статус, ####!111
**************
Group: Металариец
Posts: 2,922
Releases: 2617
From: Одесса
On Forums: 12 years 1 month
Thanks: 25213 time(s)
Ukraine


(IMG:http://metalarea.org/images/audiocovers/2019_Nov/acov_tid330677_thumb.jpg)

*Artist: Ayakasi Kagura
*Album: Kikoshi Meshi Tamae
*Year: 2019
*Genre: Brutal Death Metal
*Country: Japan (IMG:http://metalarea.org/forum/style_images/flags/Japan.png)
*Format: mp3@CBR320kbps
*Size: 132MB

Tracklist:
1.死聲 03:22
2.从怨 10:08
3.闇深キモノ 02:43
4.我、此処二在リ 02:41
5.コトリバコ 03:06
6.是空 03:31
7.聞シ召シ給ヘ 04:38
8.鬼丸 02:54
9.底無シ沼 04:05
10.狂咲 03:00
11.五元ノ壊 03:08
12.息が続く限り 03:27
13.春の予感 04:18
14.七転八起 03:49
******************************
Total playing time: 54:50



Technical info
(IMG:http://metalarea.org/images/spectrogram/2019_Nov/c191b26c2de226dde74b4a33b22727c7.png)
Input File: 08 - 鬼丸 (Onimaru).mp3
Channels : 2
Sample Rate : 44100
Precision : 16-bit
Duration : 00:02:54.80 = 7708592 samples = 13109.9 CDDA sectors
File Size : 7.00M
Bit Rate : 320k
Sample Encoding: MPEG audio (layer I, II or III)
Comments :
Title=鬼丸 (Onimaru)
Artist=Ayakasi Kagura
Album=聞シ召シ給ヘ (Kikoshi Meshi Tamae)
Tracknumber=8
Year=2019
Genre=Brutal Death Metal



Register


Go to the top of the page
  Insert nick Quick quote
+Quote Post
 
Start new topic
Replies (1 - 2)
post Nov 23 2019, 09:46:04
Post #2

...
**************
Group: Металариец
Posts: 4,929
Releases: 512
From: МОРсквы
On Forums: 13 years 9 months
Thanks: 7564 time(s)
Russian Federation


どのようなもの!
Go to the top of the page
  Insert nick Quick quote
+Quote Post
post Mar 27 2020, 01:49:00
Post #3

Правь статус, ####!111
**************
Group: Металариец
Posts: 2,286
Releases: 0
On Forums: 5 years 2 months
Thanks: 2787 time(s)
Russian Federation


Из сети 320
Register
Go to the top of the page
  Insert nick Quick quote
+Quote Post

Reply to this topicStart new topic
1 User(s) are reading this topic (1 Guests and 0 Anonymous Users)
0 Members:

 



- Lo-Fi Version Support form
Copyrights and abuse reports form
Time is now: 13th July 2020 - 22:37:51