Welcome Guest ( Log In | Register )

> Releases Upload / Добавление релизов

Добавить релиз тут / Click here to add release
Рекомендованные обменники / Recommended file shares

 
Reply to this topicStart new topic
> Mistaken - Screams Of Agony [ep] (2019), Melodic Death Metal
post Nov 22 2019, 20:47:11
Post #1

Правь статус, ####!111
**************
Group: Металариец
Posts: 19,855
Releases: 13469
From: Г.Харьков
On Forums: 7 years 7 months
Thanks: 232978 time(s)
Unknown


(IMG:http://metalarea.org/images/audiocovers/2019_Nov/acov_tid330684_thumb.jpg)

*Artist: Mistaken
*Album: Screams Of Agony [ep]
*Year: 2019
*Genre: Melodic Death Metal
*Country: Greece (IMG:http://metalarea.org/forum/style_images/flags/Greece.png)
*Format: mp3@CBR320kbps
*Size: 65MB

Tracklist:
1. Screams of Agony 06:04
2. Devoured by Hate 04:07
3. Horns of an Angel 03:43
4. The Plague 04:56
5. Drowning in Fading Echoes 09:27
******************************
Total playing time: 28:17



Extended info



Technical info
(IMG:http://metalarea.org/images/spectrogram/2019_Nov/e66dd5b71306c118074d2295cacb94a3.png)
Input File: 04 - The Plague.mp3
Channels : 2
Sample Rate : 44100
Precision : 16-bit
Duration : 00:04:56.58 = 13079354 samples = 22243.8 CDDA sectors
File Size : 12.0M
Bit Rate : 324k
Sample Encoding: MPEG audio (layer I, II or III)
Comments :
Title=The Plague
Artist=Mistaken
Album=Screams of Agony
Tracknumber=4
Year=2019-11-19
Genre=Metal
Discnumber=1



Register


Go to the top of the page
  Insert nick Quick quote
+Quote Post

Reply to this topicStart new topic
1 User(s) are reading this topic (1 Guests and 0 Anonymous Users)
0 Members:

 



- Lo-Fi Version Support form
Copyrights and abuse reports form
Time is now: 13th December 2019 - 03:23:36