Welcome Guest ( Log In | Register )

 
Reply to this topicStart new topic
> Uhl - Velchans (2019), Raw Black Metal
post Nov 23 2019, 16:20:39
Post #1

Правь статус, ####!111
**************
Group: Металариец
Posts: 2,006
Releases: 1586
From: Praha
On Forums: 6 years 1 month
Thanks: 40380 time(s)
Czech Republic


(IMG:http://metalarea.org/images/audiocovers/2019_Nov/acov_tid330704_thumb.jpg)

*Artist: Uhl
*Album: Velchans
*Year: 2019
*Genre: Raw Black Metal
*Country: France (IMG:http://metalarea.org/forum/style_images/flags/France.png)
*Format: mp3@CBR320kbps
*Size: 97MB

Tracklist:
1. Tant d'aurores
2. Velchans
3. Vacillant espoir
4. Adiaphoron
5. Obéir à la nuit
6. L'hiver stérile
7. Solennelles forteresses
******************************
Total playing time: 40:36



Extended info
Vetr Naetr ‎- 002
Tape-rip + Scans


Technical info
(IMG:http://metalarea.org/images/spectrogram/2019_Nov/8c70c17362782e8e0b3d5d9129d720aa.png)
Input File: B2. L\'Hiver Stérile.mp3
Channels : 2
Sample Rate : 48000
Precision : 16-bit
Duration : 00:06:21.29 = 18301968 samples ~ 28596.8 CDDA sectors
File Size : 15.6M
Bit Rate : 327k
Sample Encoding: MPEG audio (layer I, II or III)
Comments :
Title=L'Hiver Stérile
Artist=Uhl
Album=Velchans
Year=2019
Genre=Raw Black Metal



Register


Go to the top of the page
  Insert nick Quick quote
+Quote Post

Reply to this topicStart new topic
1 User(s) are reading this topic (1 Guests and 0 Anonymous Users)
0 Members:

 



- Lo-Fi Version Support form
Copyrights and abuse reports form
Time is now: 5th June 2020 - 16:49:10