Welcome Guest ( Log In | Register )

> И неформату есть предел.

Рэп/хип-хоп/шансон/поп удаляются. Для них есть свои порталы.

 
Reply to this topicStart new topic
> Midnartiis - In Silent Grove To Dwell (2019), Neo/Dark Folk
post Nov 23 2019, 16:54:26
Post #1

...
**************
Group: Металариец
Posts: 3,375
Releases: 1428
From: МЕЩЁРА
On Forums: 11 years 8 months
Thanks: 40807 time(s)
Russian Federation


(IMG:http://metalarea.org/images/audiocovers/2019_Nov/acov_tid330708_thumb.jpg)

*Artist: Midnartiis
*Album: In Silent Grove To Dwell
*Year: 2019
*Genre: Neo/Dark Folk
*Country: United States (IMG:http://metalarea.org/forum/style_images/flags/United%20States.png)
*Format: mp3@CBR320kbps
*Size: 99MB

Tracklist:
01. A Curtain Over The Stars 01:46
02. In Silent Grove To Dwell 03:35
03. Keening Lupine 04:23
04. A Curtain Over The Stars 03:42
05. Death Leaves The Maiden 02:45
06. Praise To The Muse 01:56
07. Putre Factio 04:19
08. The Fool, The Queen, And The Devil 03:03
09. A Mirror For Witches 03:46
10. Apollonian Blade 03:03
11. What The Lyre Slowly Brings 02:40
12. Honor’s Cloak 03:05
13. The Crossroads 03:36
******************************
Total playing time: 41:39




Extended info
A collection of somber folk songs dealing with myths and archetypes woven into life, steeped in a longing for nature in the midst of modernity.



Technical info
(IMG:http://metalarea.org/images/spectrogram/2019_Nov/1a807613f236fcd502bc165f8e1bbf46.png)
Input File: 02. In Silent Grove To Dwell.mp3
Channels : 2
Sample Rate : 44100
Precision : 16-bit
Duration : 00:03:35.86 = 9519602 samples = 16189.8 CDDA sectors
File Size : 8.73M
Bit Rate : 323k
Sample Encoding: MPEG audio (layer I, II or III)
Comments :
Title=In Silent Grove to Dwell
Artist=Midnartiis
Album=In Silent Grove to Dwell
Tracknumber=2
Year=2019



Register


Go to the top of the page
  Insert nick Quick quote
+Quote Post

Reply to this topicStart new topic
1 User(s) are reading this topic (1 Guests and 0 Anonymous Users)
0 Members:

 



- Lo-Fi Version Support form
Copyrights and abuse reports form
Time is now: 10th December 2019 - 11:14:22