Welcome Guest ( Log In | Register )

> Sertraline - These Mills Are Oceans [ep] (2019), Post-Black Metal
post Nov 24 2019, 13:32:01
Post #1

Group: Подсевший
Posts: 37
Releases: 25
On Forums: 4 months 3 weeks
Thanks: 460 time(s)
Unknown


(IMG:http://metalarea.org/images/audiocovers/2019_Nov/acov_tid330751_thumb.jpg)

*Artist: Sertraline
*Album: These Mills Are Oceans [ep]
*Year: 2019
*Genre: Post-Black Metal
*Country: United States (IMG:http://metalarea.org/forum/style_images/flags/United%20States.png)
*Format: mp3@CBR320kbps
*Size: 46MB

Tracklist:
01. Eyes As Tableau 05:13
02. Their Cities 07:19
03. Prague 07:36
******************************
Total playing time: 20:08



Extended info
Fresh off the release of "From Both Our Hands" and their eastern North American tour this summer, Sertraline returns with "These Mills Are Oceans", another sublime collection of songs that will conjure up a plethora of emotion through its fantastic use of dynamics and juxtaposition between delicate and ominous atmospheres and vibrant crescendos of lush and mesmerizing sections that feel deeply cathartic. From the start of "Eyes As Tableau", Sertraline will enthrall, enchant, hypnotize and hold a trance on you until the last note is played.


Technical info
(IMG:http://metalarea.org/images/spectrogram/2019_Nov/31734d30a220d2a3dc150e7cd3df7c83.png)
Input File: 01. Eyes As Tableau.mp3
Channels : 2
Sample Rate : 44100
Precision : 16-bit
Duration : 00:05:13.54 = 13827202 samples = 23515.6 CDDA sectors
File Size : 12.6M
Bit Rate : 322k
Sample Encoding: MPEG audio (layer I, II or III)
Comments :
Title=Eyes As Tableau
Artist=Sertraline
Album=These Mills Are Oceans
Tracknumber=01
Year=2019



Register


Go to the top of the page
  Insert nick Quick quote
+Quote Post
 
Start new topic
Replies (1 - 1)
post Nov 25 2019, 07:08:37
Post #2

at the top
**************
Group: Металариец
Posts: 4,677
Releases: 0
From: Одесса
On Forums: 12 years 4 weeks
Thanks: 3223 time(s)
Ukraine


These releases.... (IMG:style_emoticons/default/21.gif)
Go to the top of the page
  Insert nick Quick quote
+Quote Post

Reply to this topicStart new topic
2 User(s) are reading this topic (2 Guests and 0 Anonymous Users)
0 Members:

 



- Lo-Fi Version Support form
Copyrights and abuse reports form
Time is now: 31st March 2020 - 02:17:02