Welcome Guest ( Log In | Register )

> И неформату есть предел.

Рэп/хип-хоп/шансон/поп удаляются. Для них есть свои порталы.

> King Satan - I Want You To Worship Satan (2019), Industrial Metal
post Nov 24 2019, 17:59:38
Post #1

Шесть Литров
******
Group: Металариец
Posts: 506
Releases: 23
On Forums: 11 years 3 weeks
Thanks: 531 time(s)
Russian Federation


(IMG:http://metalarea.org/images/audiocovers/2019_Nov/acov_tid330762_thumb.jpg)

*Artist: King Satan
*Album: I Want You To Worship Satan
*Year: 2019
*Genre: Industrial Metal
*Country: Finland (IMG:http://metalarea.org/forum/style_images/flags/Finland.png)
*Format: mp3@CBR320kbps
*Size: 110MB

Tracklist:
01. The Killing Of God
02. Fuck Yoga
03. Psychosadomasochism
04. I Want You To Worship Satan
05. All Magick Is Chaos Magick
06. Fuck The World
07. The Antichristification
08. Circus of the Mind
09. Transgression
10. Raison d'Etre
11. The Portrait Of Darkness
12. Satanized (Alien:Nation Remix)
******************************
Total playing time: 48:15

Preview 1
Preview 2

Extended info
KING SATAN’s second full length album titled I WANT YOU TO WORSHIP SATAN (2019) was set to be released in 22th November 2019 by INVERSE RECORDS and which will be introduced to the world once again by singles with impudent music videos all written and directed by band’s KING ALEISTER SATAN himself.

KING SATAN IS
KING ALEISTER SATAN - Vocals, programming, various instruments (2015- )
KATHERINE "KATE" BOSS - Synths, vocals (2016- )
JERRY ROCK'N'ROLL - Bass guitar (2017- )
FRATER E.F. - Live guitars (2019- )
PETE HELLRAISER - Drums (2019- )

Past members

Dalai Daimonicus - Guitars (2018-2019)
Sir Changa McKenna - Drums (2017-2019)
Magister Demaniac - Guitars, programming (2017-2018)
Martin Shemhamforash - Bass & Synth (2017-2017)
John Oscar Dee a.k.a. DJ Shemhamforash - Guitars, bass (2015-2017)
B.B. Kill - Guitars (2016-2017)
Tomax Xamot - Bass guitar (2016-2016)
DJ Instixx - Beats (2016-2016)
Captain Veisalgia - Bass guitar (2015-2016)


Technical info
(IMG:http://metalarea.org/images/spectrogram/2019_Nov/3b3f67261aa7219e05fc68ebb8303af7.png)
Input File: 01-The Killing of God.mp3
Channels : 2
Sample Rate : 44100
Precision : 16-bit
Duration : 00:04:02.49 = 10693589 samples = 18186.4 CDDA sectors
File Size : 9.70M
Bit Rate : 320k
Sample Encoding: MPEG audio (layer I, II or III)
Comments :
Title=The Killing of God
Artist=King Satan
Album=I Want You to Worship Satan
Tracknumber=1
Year=2019
Genre=Industrial Metal
Discnumber=1



Register


Thanks:
Go to the top of the page
  Insert nick Quick quote
+Quote Post
 
Start new topic
Replies (1 - 1)
post Nov 25 2019, 20:21:49
Post #2

Шесть Литров
******
Group: Металариец
Posts: 506
Releases: 23
On Forums: 11 years 3 weeks
Thanks: 531 time(s)
Russian Federation


FLAC tracks
Register


Thanks:
(1) Olethros,
Go to the top of the page
  Insert nick Quick quote
+Quote Post

Reply to this topicStart new topic
1 User(s) are reading this topic (1 Guests and 0 Anonymous Users)
0 Members:

 



- Lo-Fi Version Support form
Copyrights and abuse reports form
Time is now: 10th December 2019 - 11:13:28