Welcome Guest ( Log In | Register )

> И неформату есть предел.

Рэп/хип-хоп/шансон/поп удаляются. Для них есть свои порталы.

 
Reply to this topicStart new topic
> Chthonia - Umbra: Veil Of The Moon (2019), Dark/Ritual Ambient
post Nov 24 2019, 18:38:48
Post #1

Три Литра
***
Group: Завсегдатай
Posts: 284
Releases: 174
On Forums: 10 years 9 months
Thanks: 1804 time(s)
Russian Federation


(IMG:https://metalarea.org/images/audiocovers/2019_Nov/acov_tid330765_thumb.jpg)

*Artist: Chthonia
*Album: Umbra: Veil Of The Moon
*Year: 2019
*Genre: Dark/Ritual Ambient
*Country: New Zealand (IMG:https://metalarea.org/forum/style_images/flags/New%20Zealand.png)
*Format: mp3@CBR320kbps
*Size: 87MB

Tracklist:
01. Key To The Moon (Opening Invocation) 04:04
02. Aktiophis 06:55
03. Irkalla 13:40
04. Queen Of Blood 09:12
05. Key To The Sun (Closing Ceremony) 04:26
******************************
Total playing time: 38:17



Technical info
(IMG:https://metalarea.org/images/spectrogram/2019_Nov/94a8857026c963225df38500aff291c4.png)
Input File: 01 - Key To The Moon (Opening Invocation).mp3
Channels : 2
Sample Rate : 44100
Precision : 16-bit
Duration : 00:04:04.85 = 10798017 samples = 18364 CDDA sectors
File Size : 9.80M
Bit Rate : 320k
Sample Encoding: MPEG audio (layer I, II or III)
Comments :
Title=Key To The Moon (Opening Invocation)
Artist=CHTHONIA
Album=Umbra: Veil Of The Moon
Tracknumber=1
Year=2019



Register


Go to the top of the page
  Insert nick Quick quote
+Quote Post

Reply to this topicStart new topic
1 User(s) are reading this topic (1 Guests and 0 Anonymous Users)
0 Members:

 



- Lo-Fi Version Support form
Copyrights and abuse reports form
Time is now: 10th December 2019 - 11:58:40