Welcome Guest ( Log In | Register )

> Acne - 三岔口 (Crossways) (2019), Thrash Metal
post Nov 24 2019, 23:55:06
Post #1

Правь статус, ####!111
**************
Group: Металариец
Posts: 20,340
Releases: 13869
From: Г.Харьков
On Forums: 7 years 8 months
Thanks: 243198 time(s)
Unknown


(IMG:http://metalarea.org/images/audiocovers/2019_Nov/acov_tid330774_thumb.jpg)

*Artist: Acne
*Album: 三岔口 (Crossways)
*Year: 2019
*Genre: Thrash Metal
*Country: China (IMG:http://metalarea.org/forum/style_images/flags/China.png)
*Format: mp3@CBR320kbps
*Size: 81MB

Tracklist:
1. 非人间 (Inhuman) 00:56
2. 刀光一闪 (Twist of the Knife) 04:59
3. 妙龄乳鸽 (Teenage Pigeons) 04:47
4. 恶梦 (Nightmare) 04:48
5. 永不超生 (No Rebirth) 03:42
6. 校园民谣 (Campus Ballad) 01:10
7. 孖生兄弟 (Twins) 04:22
8. 异常正常 (Abnormally Normal) 05:07
9. 脸皮的厚皮 (Thick Skin) 01:54
10. 游戏天地 (Game Zone) 04:23
******************************
Total playing time: 36:08



Extended info
Gary Ho Everything


Technical info
(IMG:http://metalarea.org/images/spectrogram/2019_Nov/52d32099aa215d03ae2a6aafce54a3b9.png)
Input File: 03 - 妙龄乳鸽 (Teenage Pigeons).mp3
Channels : 2
Sample Rate : 44100
Precision : 16-bit
Duration : 00:04:47.17 = 12663977 samples = 21537.4 CDDA sectors
File Size : 11.5M
Bit Rate : 320k
Sample Encoding: MPEG audio (layer I, II or III)
Comments :
Title=妙龄乳鸽 (Teenage Pigeons)
Artist=Acne
Album=三岔口 (Crossways)
Tracknumber=3
Year=2019
Genre=Metal



Register


Go to the top of the page
  Insert nick Quick quote
+Quote Post
 
Start new topic
Replies (1 - 3)
post Nov 26 2019, 17:30:46
Post #2

Три Литра
***
Group: Завсегдатай
Posts: 282
Releases: 0
From: Kyiv
On Forums: 7 years 9 months
Thanks: 110 time(s)
Ukraine


Это какой-то адский псдц, а не трэш)


Thanks:
Go to the top of the page
  Insert nick Quick quote
+Quote Post
post Nov 28 2019, 22:42:40
Post #3

Шесть Литров
******
Group: Металариец
Posts: 681
Releases: 0
From: Одесса-мама
On Forums: 11 years 1 week
Thanks: 218 time(s)
Ukraine


ЦИТАТА(kessler @ Nov 26 2019, 18:30:46) *
Это какой-то адский псдц, а не трэш)


О, братовило, как ты правильно смог определить данный стиль! А я слушаю, слушаю, и - никак! Хорошо, твой коммент прочитал! (IMG:style_emoticons/default/headcrab.png)


Thanks:
Go to the top of the page
  Insert nick Quick quote
+Quote Post
post Nov 29 2019, 19:10:07
Post #4

Мегаманьяк
***********
Group: Металариец
Posts: 1,671
Releases: 0
On Forums: 10 years 10 months
Thanks: 634 time(s)
Antarctica


Трэш как трэш. Единственная особенность - эти странные пиу-пиу. Не заинтересовал.


Thanks:
Go to the top of the page
  Insert nick Quick quote
+Quote Post

Reply to this topicStart new topic
2 User(s) are reading this topic (2 Guests and 0 Anonymous Users)
0 Members:

 



- Lo-Fi Version Support form
Copyrights and abuse reports form
Time is now: 27th January 2020 - 20:26:06