Welcome Guest ( Log In | Register )

> И неформату есть предел.

Рэп/хип-хоп/шансон/поп удаляются. Для них есть свои порталы.

> The Silverblack - Prototype 6:17 (2019), Industrial Metal
post Nov 25 2019, 13:09:10
Post #1

Шесть Литров
******
Group: Металариец
Posts: 507
Releases: 23
On Forums: 11 years 3 weeks
Thanks: 533 time(s)
Russian Federation


(IMG:http://metalarea.org/images/audiocovers/2019_Nov/acov_tid330793_thumb.jpg)

*Artist: The Silverblack
*Album: Prototype 6:17
*Year: 2019
*Genre: Industrial Metal
*Country: Italy (IMG:http://metalarea.org/forum/style_images/flags/Italy.png)
*Format: mp3@CBR320kbps
*Size: 97MB

Tracklist:
1. Prototype 03:28
2. Breathing Fire 03:16
3. Carnivogue 04:12
4. Embers 03:07
5. To The Shadows 03:50
6. Alone 04:20
7. The Ghostwalker 04:13
8. Sine Missione 02:51
9. Hold On To A Whisper 05:15
10. Insurrection 03:58
11. Revelation 6:17 03:09
******************************
Total playing time: 41:45



Extended info
Released November 22, 2019


Technical info
(IMG:http://metalarea.org/images/spectrogram/2019_Nov/f30d229d70f48766a2896af45fa6ab4a.png)
Input File: 01-Prototype.mp3
Channels : 2
Sample Rate : 44100
Precision : 16-bit
Duration : 00:03:28.58 = 9198202 samples = 15643.2 CDDA sectors
File Size : 8.34M
Bit Rate : 320k
Sample Encoding: MPEG audio (layer I, II or III)
Comments :
Title=Prototype
Artist=The Silverblack
Album=Prototype 6:17
Tracknumber=1
Year=2019
Genre=Industrial Metal
Discnumber=1



Register


Go to the top of the page
  Insert nick Quick quote
+Quote Post
 
Start new topic
Replies (1 - 1)
post Nov 25 2019, 20:26:56
Post #2

Шесть Литров
******
Group: Металариец
Posts: 507
Releases: 23
On Forums: 11 years 3 weeks
Thanks: 533 time(s)
Russian Federation


FLAC tracks
Register


Thanks:
Go to the top of the page
  Insert nick Quick quote
+Quote Post

Reply to this topicStart new topic
1 User(s) are reading this topic (1 Guests and 0 Anonymous Users)
0 Members:

 



- Lo-Fi Version Support form
Copyrights and abuse reports form
Time is now: 11th December 2019 - 03:39:32