Welcome Guest ( Log In | Register )

> Gerrraht! - Black Siberian Punk (2019), Punk/Raw Post-Black Metal
post Nov 25 2019, 14:00:36
Post #1

Group: Подсевший
Posts: 21
Releases: 9
On Forums: 12 years 3 months
Thanks: 76 time(s)
Russian Federation


(IMG:https://metalarea.org/images/audiocovers/2019_Nov/acov_tid330797_thumb.jpg)

*Artist: Gerrraht!
*Album: Black Siberian Punk
*Year: 2019
*Genre: Punk/Raw Post-Black Metal
*Country: Russian Federation (IMG:https://metalarea.org/forum/style_images/flags/Russian%20Federation.png)
*Format: mp3@CBR320kbps
*Size: 120MB

Tracklist:
01. Russians Created Satan 04:01
02. Black Siberian Punk 03:32
03. Svart Metal Er Død 02:24
04. Stupid Song About Childhood (Nazzad!) 04:17
05. Teach Children To Die For Fatherland 06:24
06. Theoria Oscillations 07:15
07. Forgotten 05:15
08. Fuck The 90's 05:23
09. Bachene 04:23
10. To The Sons Of Japheth 03:27
******************************
Total playing time: 46:21

Technical info
(IMG:https://metalarea.org/images/spectrogram/2019_Nov/ed2c16ca04463c637b51391350ec7d9b.png)
Input File: 01 Russians Created Satan.mp3
Channels : 2
Sample Rate : 44100
Precision : 16-bit
Duration : 00:04:01.25 = 10639301 samples = 18094 CDDA sectors
File Size : 11.1M
Bit Rate : 368k
Sample Encoding: MPEG audio (layer I, II or III)
Comments :
Title=Russians Created Satan
Artist=Gerrraht!
Album=Black Siberian Punk
Tracknumber=1/10
Year=2019
Genre= Black Metal



Register


Go to the top of the page
  Insert nick Quick quote
+Quote Post
 
Start new topic
Replies (1 - 4)
post Nov 26 2019, 09:49:48
Post #2

Пять Литров
*****
Group: Металариец
Posts: 459
Releases: 21
From: Подольск
On Forums: 10 years 8 months
Thanks: 641 time(s)
Russian Federation


превьюха на ютубе
Go to the top of the page
  Insert nick Quick quote
+Quote Post
post Nov 26 2019, 10:13:24
Post #3

Шесть Литров
******
Group: Металариец
Posts: 539
Releases: 1
From: АР Крым, Симферополь
On Forums: 11 years 10 months
Thanks: 239 time(s)
Russian Federation




Thanks:
Go to the top of the page
  Insert nick Quick quote
+Quote Post
post Nov 26 2019, 12:42:26
Post #4

Правь статус, ####!111
**************
Group: Металариец
Posts: 45,122
Releases: 695
On Forums: 10 years 8 months
Thanks: 36814 time(s)
Russian Federation


ЦИТАТА(Yanek @ Nov 25 2019, 16:00:36) *
Russians Created Satan


Оказывается и тут мы впереди планеты всей (IMG:style_emoticons/default/1488.gif)
Go to the top of the page
  Insert nick Quick quote
+Quote Post
post Nov 26 2019, 12:49:54
Post #5

Миниманьяк
**************
Group: Металариец
Posts: 2,160
Releases: 11
From: Київ
On Forums: 14 years 1 week
Thanks: 1152 time(s)
Ukraine


Егора Летова зомбифицировали.

UPD: Снова ништячок подсунули, откуда не ждал. Я весь этот насоветованный трэш из соседней темы так никогда и не дослушаю

UPD2: У кого тоже не работает ядиск, тот может бесплатно скачать с бендкемпа.
Go to the top of the page
  Insert nick Quick quote
+Quote Post

Reply to this topicStart new topic
2 User(s) are reading this topic (2 Guests and 0 Anonymous Users)
0 Members:

 



- Lo-Fi Version Support form
Copyrights and abuse reports form
Time is now: 22nd February 2020 - 08:32:48