Welcome Guest ( Log In | Register )

> И неформату есть предел.

Рэп/хип-хоп/шансон/поп удаляются. Для них есть свои порталы.

 
Reply to this topicStart new topic
> Deflore - Spectrum - Epicentre (2017), Industrial Metal
post Nov 25 2019, 20:24:40
Post #1

Литр
*
Group: Подсевший
Posts: 82
Releases: 1
From: Санкт-Петербург
On Forums: 13 years 6 months
Thanks: 57 time(s)
Russian Federation


(IMG:http://metalarea.org/images/audiocovers/2019_Nov/acov_tid330809_thumb.jpg)

*Artist: Deflore
*Album: Spectrum - Epicentre
*Year: 2017
*Genre: Industrial Metal
*Country: Italy (IMG:http://metalarea.org/forum/style_images/flags/Italy.png)
*Format: mp3@CBR320kbps
*Size: 80MB

Tracklist:
01. Mastica/Me 05:21
02. Betoniera 06:54
03. Apollo 05:52
04. Rare/Fracto Phase I 04:13
05. King Deaf 06:12
06. Treesong 05:16
******************************
Total playing time: 33:48

(IMG:http://metalarea.org/images/youtube.png)

Extended info
Рекомендуется к ознакомлению любителям Crunch, Godflesh, Dead World и т.п.


Technical info
(IMG:http://metalarea.org/images/spectrogram/2019_Nov/282bb2f28f367152002156b189cc08a9.png)
Input File: 01 - Mastica - Me.mp3
Channels : 2
Sample Rate : 44100
Precision : 16-bit
Duration : 00:05:21.51 = 14178371 samples = 24112.9 CDDA sectors
File Size : 13.3M
Bit Rate : 331k
Sample Encoding: MPEG audio (layer I, II or III)
Comments :
Title=Mastica/Me
Artist=Deflore
Album=Spectrum - Epicentre
Tracknumber=01
Year=2017
Genre=Industrial Metal



Register


Thanks:
Go to the top of the page
  Insert nick Quick quote
+Quote Post

Reply to this topicStart new topic
1 User(s) are reading this topic (1 Guests and 0 Anonymous Users)
0 Members:

 



- Lo-Fi Version Support form
Copyrights and abuse reports form
Time is now: 10th December 2019 - 11:13:48