Welcome Guest ( Log In | Register )

> И неформату есть предел.

Рэп/хип-хоп/шансон/поп удаляются. Для них есть свои порталы.

 
Reply to this topicStart new topic
> Whalesong - Disorder (2017), Industrial Metal
post Nov 25 2019, 20:59:54
Post #1

Литр
*
Group: Подсевший
Posts: 82
Releases: 1
From: Санкт-Петербург
On Forums: 13 years 6 months
Thanks: 57 time(s)
Russian Federation


(IMG:http://metalarea.org/images/audiocovers/2019_Nov/acov_tid330810_thumb.jpg)

*Artist: Whalesong
*Album: Disorder
*Year: 2017
*Genre: Industrial Metal
*Country: Poland (IMG:http://metalarea.org/forum/style_images/flags/Poland.png)
*Format: mp3@CBR320kbps
*Size: 149MB

Tracklist:
01. Parasites 04:24
02. Slave 04:12
03. Degradation 04:13
04. Juggernaut 08:17
05. Dearth 07:31
06. Ruins 06:55
07. Broken Instinct 03:39
08. Disorder 19:20
******************************
Total playing time: 58:31

(IMG:http://metalarea.org/images/youtube.png)

Extended info
Neithan - guitars, vocals, samples, textures, theremin
Sivy - bass, vocals
Grekh - drums
guests:
Vogg - accordion solo on 'Dearth', accordion sounds on various songs
Samuli Kuusinen - lead vocals on 'Ruins' and additional vocals on 'Disorder'
J. - additional vocals on 'Disorder'
------------------------------------------------------------------------------------
Personal purchaise.
Польский Godflesh...


Technical info
(IMG:http://metalarea.org/images/spectrogram/2019_Nov/d00f4212061ce098664f59ecd97e0ec7.png)
Input File: 03 - Degradation.mp3
Channels : 2
Sample Rate : 44100
Precision : 16-bit
Duration : 00:04:12.80 = 11148656 samples = 18960.3 CDDA sectors
File Size : 10.2M
Bit Rate : 322k
Sample Encoding: MPEG audio (layer I, II or III)
Comments :
Title=Degradation
Artist=Whalesong
Album=Disorder
Tracknumber=03
Year=2017
Genre=Industrial Metal



Register


Go to the top of the page
  Insert nick Quick quote
+Quote Post

Reply to this topicStart new topic
1 User(s) are reading this topic (1 Guests and 0 Anonymous Users)
0 Members:

 



- Lo-Fi Version Support form
Copyrights and abuse reports form
Time is now: 11th December 2019 - 03:40:03