Welcome Guest ( Log In | Register )

> И неформату есть предел.

Рэп/хип-хоп/шансон/поп удаляются. Для них есть свои порталы.

 
Reply to this topicStart new topic
> Slug - The World As Will And Hate (2019), Noise/Experimental
post Nov 25 2019, 22:08:41
Post #1

Group: Дух
Posts: 2
Releases: 0
On Forums: 1 month 4 days
Thanks: 2 time(s)
Portugal


(IMG:https://metalarea.org/images/audiocovers/2019_Nov/acov_tid330812_thumb.jpg)

*Artist: Slug
*Album: The World As Will And Hate
*Year: 2019
*Genre: Noise/Experimental
*Country: Portugal (IMG:https://metalarea.org/forum/style_images/flags/Portugal.png)
*Format: mp3@CBR320kbps
*Size: 132MB

Tracklist:
1. Simulacres et Simulation 03:24
2. Onde Tudo Foi Morrendo 10:39
3. The Architecture of Grit 15:44
4. BDI: 63 21:05
******************************
Total playing time: 50:52



Extended info
Not recommended for: intellectuals, music lovers, academics, social whores and all other filters disguised as people.


Technical info
(IMG:https://metalarea.org/images/spectrogram/2019_Nov/13041fc584469429154c8a15866ee76d.png)
Input File: 01 - SLUG - Simulacres et Simulation.mp3
Channels : 2
Sample Rate : 44100
Precision : 16-bit
Duration : 00:03:24.03 = 8997723 samples = 15302.2 CDDA sectors
File Size : 13.5M
Bit Rate : 529k
Sample Encoding: MPEG audio (layer I, II or III)
Comments :
Title=Simulacres et Simulation
Artist=SLUG
Album=The World as Will and Hate
Tracknumber=01
Year=2019
Genre=Noise



Register


Thanks:
Go to the top of the page
  Insert nick Quick quote
+Quote Post

Reply to this topicStart new topic
1 User(s) are reading this topic (1 Guests and 0 Anonymous Users)
0 Members:

 



- Lo-Fi Version Support form
Copyrights and abuse reports form
Time is now: 10th December 2019 - 11:20:07