Welcome Guest ( Log In | Register )

> И неформату есть предел.

Рэп/хип-хоп/шансон/поп удаляются. Для них есть свои порталы.

> Surya - Overthrown (2019), Stoner/Hard Rock/Blues/Heavy Psych
post Nov 26 2019, 08:33:10
Post #1

Правь статус, ####!111
**************
Group: Металариец
Posts: 44,528
Releases: 688
On Forums: 10 years 6 months
Thanks: 35846 time(s)
Russian Federation


(IMG:http://metalarea.org/images/audiocovers/2019_Nov/acov_tid330821_thumb.jpg)

*Artist: Surya
*Album: Overthrown
*Year: 2019
*Genre: Stoner/Hard Rock/Blues/Heavy Psych
*Country: Spain (IMG:http://metalarea.org/forum/style_images/flags/Spain.png)
*Format: mp3@CBR320kbps
*Size: 95MB

Tracklist:
1. Tales Of The Great Fharats 03:47
2. Sundazed 04:13
3. Crystal Gate 07:28
4. Thousand Year Bridge 04:27
5. Golden Tower 04:54
6. Turtle Shaman 06:27
7. Begone 03:58
8. No Further 05:19
******************************
Total playing time: 40:33



Technical info
(IMG:http://metalarea.org/images/spectrogram/2019_Nov/602a37497dbc624a5ba795df09116a40.png)
Input File: 01. Tales of the Great Fharats.mp3
Channels : 2
Sample Rate : 44100
Precision : 16-bit
Duration : 00:03:47.65 = 10039189 samples = 17073.5 CDDA sectors
File Size : 9.50M
Bit Rate : 334k
Sample Encoding: MPEG audio (layer I, II or III)
Comments :
Title=Tales of the Great Fharats
Artist=Surya
Album=Overthrown
Tracknumber=1/8
Year=2019
Genre=Rock
Discnumber=1/1



Register


Thanks:
Go to the top of the page
  Insert nick Quick quote
+Quote Post
 
Start new topic
Replies (1 - 1)
post Nov 26 2019, 08:45:39
Post #2

Правь статус, ####!111
**************
Group: Металариец
Posts: 44,528
Releases: 688
On Forums: 10 years 6 months
Thanks: 35846 time(s)
Russian Federation


Приятственный дебют.
Go to the top of the page
  Insert nick Quick quote
+Quote Post

Reply to this topicStart new topic
1 User(s) are reading this topic (1 Guests and 0 Anonymous Users)
0 Members:

 



- Lo-Fi Version Support form
Copyrights and abuse reports form
Time is now: 11th December 2019 - 03:39:00