Welcome Guest ( Log In | Register )

> Porifice - Heat Pain Redness Swelling And Loss Of Function (2019), Goregrind
post Nov 26 2019, 15:02:06
Post #1

Serial Uploader
Group Icon
Group: V.I.P
Posts: 37,112
Releases: 35296
From: Lithuania
On Forums: 11 years 9 months
Thanks: 418049 time(s)
Lithuania


(IMG:http://metalarea.org/images/audiocovers/2019_Nov/acov_tid330827_thumb.jpg)

*Artist: Porifice
*Album: Heat Pain Redness Swelling And Loss Of Function
*Year: 2019
*Genre: Goregrind
*Country: Switzerland (IMG:http://metalarea.org/forum/style_images/flags/Switzerland.png)
*Format: mp3@CBR320kbps
*Size: 58MB

Tracklist:
01. Invasion Of An Organism's Body Tissues By Disease-Causing Agents 01:58
02. Red Eared Slider Lucifer Virus 00:44
03. Alphaherpesvirinae Betaherpesvirinae Gammaherpesvirinae 00:50
04. Fibropapilloma Associated Herpes 01:14
05. Phascolarctid Gammavirus 00:57
06. Atherosclerosis Equine Rhadino Disease 00:13
07. Irritable Eye Syndrome 00:46
08. Cercopithecine Leporid 01:07
09. Bovine Infectious Rhinotracheitis 00:41
10. Pustular Vulvovaginitis 00:54
11. Epizootic Encephalitis 02:21
12. Balanoposthitis And Vaginitis 00:35
13. Infectious Parastasis Analocosis 00:26
14. Hindleg Paralysis Meningoencephalitis 00:53
15. Avian Infectious Laryngotracheitis 00:35
16. Manifestation Of Avian Psittacosis 00:54
17. Rhadinoviruses Infect Lymphocytes And Adherent Cells 01:31
18. Abortion And Retained Foetal Membranes 00:41
19. Exocrine Pancreatic Insufficiency 03:26
******************************
Total playing time: 20:46



(IMG:http://metalarea.org/images/youtube.png)

Technical info
(IMG:http://metalarea.org/images/spectrogram/2019_Nov/85841d10142289773bb529f46d506d5a.png)
Input File: 02. Red Eared Slider Lucifer Virus.mp3
Channels : 2
Sample Rate : 44100
Precision : 16-bit
Duration : 00:00:44.70 = 1971314 samples = 3352.57 CDDA sectors
File Size : 2.34M
Bit Rate : 419k
Sample Encoding: MPEG audio (layer I, II or III)
Comments :
Title=Red Eared Slider Lucifer Virus
Artist=Porifice
Album=Heat Pain Redness Swelling and Loss of Function (320)
Tracknumber=02
Year=2019
Genre=Metal



Register


Go to the top of the page
  Insert nick Quick quote
+Quote Post
 
Start new topic
Replies (1 - 1)
post Nov 26 2019, 17:01:04
Post #2

Пять Литров
*****
Group: Металариец
Posts: 496
Releases: 0
From: APATIN, SERBIA, АПАТИН, СЕРБИЯ
On Forums: 12 years 5 months
Thanks: 708 time(s)



Flac

Register


Thanks:
(1) Olethros,
Go to the top of the page
  Insert nick Quick quote
+Quote Post

Reply to this topicStart new topic
1 User(s) are reading this topic (1 Guests and 0 Anonymous Users)
0 Members:

 



- Lo-Fi Version Support form
Copyrights and abuse reports form
Time is now: 30th March 2020 - 14:23:41