Welcome Guest ( Log In | Register )

> И неформату есть предел.

Рэп/хип-хоп/шансон/поп удаляются. Для них есть свои порталы.

> Pozno - Pozno (2019), 70´s Hard Rock/Doom Metal
post Nov 27 2019, 14:55:34
Post #1

Правь статус, ####!111
**************
Group: Металариец
Posts: 44,506
Releases: 688
On Forums: 10 years 6 months
Thanks: 35839 time(s)
Russian Federation


(IMG:http://metalarea.org/images/audiocovers/2019_Nov/acov_tid330856_thumb.jpg)

*Artist: Pozno
*Album: Pozno
*Year: 2019
*Genre: 70´s Hard Rock/Doom Metal
*Country: Russian Federation (IMG:http://metalarea.org/forum/style_images/flags/Russian%20Federation.png)
*Format: mp3@CBR320kbps
*Size: 129MB

Tracklist:
1. Dancing Love 05:10
2. How Much Music Is Spilled 04:48
3. The Ex 04:25
4. There Is Something In The Blood 05:10
5. IQ 07:52
6. Underground 05:28
7. Rock 'N' Roll Doctor 05:54
8. The Cricket 05:23
9. Early To Die 05:31
10. Love 05:52
******************************
Total playing time: 55:33



Technical info
(IMG:http://metalarea.org/images/spectrogram/2019_Nov/8d7428710c7e36cbd9cf4da46550f266.png)
Input File: POZNO - POZNO - 01 Dancing love.mp3
Channels : 2
Sample Rate : 44100
Precision : 16-bit
Duration : 00:05:10.90 = 13710690 samples = 23317.5 CDDA sectors
File Size : 12.7M
Bit Rate : 327k
Sample Encoding: MPEG audio (layer I, II or III)
Comments :
Title=Dancing love
Artist=POZNO
Album=POZNO
Tracknumber=1
Year=2019



Register


Go to the top of the page
  Insert nick Quick quote
+Quote Post
 
Start new topic
Replies (1 - 6)
post Nov 27 2019, 18:40:50
Post #2

Правь статус, ####!111
**************
Group: Металариец
Posts: 44,506
Releases: 688
On Forums: 10 years 6 months
Thanks: 35839 time(s)
Russian Federation


Вокально и мелодически это ранний блэк саббат.

Но русскоязычная лирика (IMG:style_emoticons/default/facessspalm.png)
Go to the top of the page
  Insert nick Quick quote
+Quote Post
post Nov 27 2019, 20:44:46
Post #3

brutalcesar
**************
Group: Металариец
Posts: 17,781
Releases: 67
From: Рязань
On Forums: 10 years 10 months
Thanks: 9390 time(s)
Russian Federation


На русском звучит оригинально))
Go to the top of the page
  Insert nick Quick quote
+Quote Post
post Nov 28 2019, 08:59:28
Post #4

Dr.
**************
Group: Металариец
Posts: 5,316
Releases: 0
From: Primorye.ru
On Forums: 8 years 8 months
Thanks: 1087 time(s)
Russian Federation


Original, because it sounds in Russian, and as a clone of the Black Sabbath, it would be interesting to listen to, thanks.


Thanks:
Go to the top of the page
  Insert nick Quick quote
+Quote Post
post Nov 28 2019, 10:10:05
Post #5

South Of Heaven /адепт ВУДУ
**************
Group: Металариец
Posts: 13,960
Releases: 9
On Forums: 9 years 8 months
Thanks: 5295 time(s)
Unknown


Я за великий и могучий в музыке, но в данном случае это явный минус (IMG:style_emoticons/default/21.gif)

Название песен на буржуйском как компенсация (IMG:style_emoticons/default/1488.gif)
Go to the top of the page
  Insert nick Quick quote
+Quote Post
post Nov 28 2019, 12:11:51
Post #6

Тысячекратное уничтожение
**************
Group: Металариец
Posts: 3,369
Releases: 161
On Forums: 9 years 3 months
Thanks: 4694 time(s)
Unknown


ЦИТАТА(avkruchinin @ Nov 28 2019, 12:10:05) *
Я за великий и могучий в музыке, но в данном случае это явный минус (IMG:style_emoticons/default/21.gif)

Название песен на буржуйском как компенсация (IMG:style_emoticons/default/1488.gif)

Это как компенсированная асфиксия - с проходимостью дыхательных путей лажа, но, если дышать чаще, то, ласты пока не склеиваются.

В данном случае русский не очень хорошо гармонирует с манерой исполнения, мне так мыслится.

Ну, и в целом - как то Pozno ребята стали играть ранний Саббат (а может, только услышали их недавно (IMG:style_emoticons/default/1488.gif) )


Thanks:
Go to the top of the page
  Insert nick Quick quote
+Quote Post
post Nov 28 2019, 14:45:50
Post #7

Правь статус, ####!111
**************
Group: Металариец
Posts: 44,506
Releases: 688
On Forums: 10 years 6 months
Thanks: 35839 time(s)
Russian Federation


Да тут даже английский бы не помог, вокалист чрезмеро что-то пытается, пыжится, но до Оза по харизме ему как до Луны.

Слушайте Салемскую Траву, вот там все как надо - своего до фига а Оз-овский вокал фрагментарен и лишь добавляет, а не лейтмотивит.
Go to the top of the page
  Insert nick Quick quote
+Quote Post

Reply to this topicStart new topic
1 User(s) are reading this topic (1 Guests and 0 Anonymous Users)
0 Members:

 



- Lo-Fi Version Support form
Copyrights and abuse reports form
Time is now: 10th December 2019 - 11:14:43