Welcome Guest ( Log In | Register )

> Dressed To Kill - A Night In Trance [ep] (2017), Heavy Metal
post Nov 27 2019, 21:15:52
Post #1

Правь статус, ####!111
**************
Group: Металариец
Posts: 22,266
Releases: 15420
From: Г.Харьков
On Forums: 8 years 1 month
Thanks: 281842 time(s)
Unknown


(IMG:http://metalarea.org/images/audiocovers/2019_Nov/acov_tid330872_thumb.jpg)

*Artist: Dressed To Kill
*Album: A Night In Trance [ep]
*Year: 2017
*Genre: Heavy Metal
*Country: China (IMG:http://metalarea.org/forum/style_images/flags/China.png)
*Format: mp3@CBR320kbps
*Size: 52MB

Tracklist:
1. Murder City 03:24
2. Dressed to Kill 05:38
3. Madness 05:47
4. Speed Metal Mania 04:14
5. The Witch of Berkeley (A-II-Z Cover) 03:57
******************************
Total playing time: 23:00




Extended info
Hao Chenxi Bass
Yang Fuwen Guitars
Miao Li Guitars
Tie Shuo Vocals
Zhang Yichi Drums


Technical info
(IMG:http://metalarea.org/images/spectrogram/2019_Nov/35bfde3d48c716989ac46c6e12ce1785.png)
Input File: 03 - Madness.mp3
Channels : 2
Sample Rate : 44100
Precision : 16-bit
Duration : 00:05:47.84 = 15339744 samples = 26088 CDDA sectors
File Size : 13.9M
Bit Rate : 320k
Sample Encoding: MPEG audio (layer I, II or III)
Comments :
Title=Madness
Artist=Dressed To Kill
Album=A Night in Trance
Tracknumber=3
Year=2017
Genre=Heavy Metal



Register


Go to the top of the page
  Insert nick Quick quote
+Quote Post
 
Start new topic
Replies (1 - 1)
post Nov 28 2019, 10:39:54
Post #2

South Of Heaven /адепт ВУДУ
**************
Group: Металариец
Posts: 13,960
Releases: 9
On Forums: 10 years 3 months
Thanks: 5479 time(s)
Unknown


Три песни отсюда не попали на альбом за 2019 год, альбом однако однозначно покрасившие будет.


Thanks:
Go to the top of the page
  Insert nick Quick quote
+Quote Post

Reply to this topicStart new topic
2 User(s) are reading this topic (2 Guests and 0 Anonymous Users)
0 Members:

 



- Lo-Fi Version Support form
Copyrights and abuse reports form
Time is now: 6th July 2020 - 07:22:23