Welcome Guest ( Log In | Register )

> 

Здесь релизы с живыми прямыми ссылками на lossless

> Red Death - Sickness Divine (2019), Thrash Metal/Crossover (D5)
post Nov 28 2019, 11:43:04
Post #1

Правь статус, ####!111
**************
Group: Металариец
Posts: 19,812
Releases: 13428
From: Г.Харьков
On Forums: 7 years 7 months
Thanks: 232476 time(s)
Unknown


(IMG:http://metalarea.org/images/audiocovers/2019_Nov/acov_tid330894_thumb.jpg)

*Artist: Red Death
*Album: Sickness Divine
*Year: 2019
*Genre: Thrash Metal/Crossover
*Country: United States (IMG:http://metalarea.org/forum/style_images/flags/United%20States.png)
*Format: mp3@CBR320kbps
*Size: 75MB

Tracklist:
1. Sickness Divine
2. Face the Pain
3. Sword Without a Sheath
4. The Anvil's Ring
5. Sheep May Unsafely Graze
6. Path of Discipline
7. (Refuse to Be) Bound by Chains
8. Dreadful Perception
9. Ravage
10. Exhalation of Decay
******************************
Total playing time: 32:24



Extended info
Robin Bass
Connor Drums
See also: Genocide Pact, Innumerable Forms, Witchtrial, Amputation Spree (live), Abuse, Line of Sight, Protester, ex-Power Trip (live)
Ace Guitars
DHD Vocals


Technical info
(IMG:http://metalarea.org/images/spectrogram/2019_Nov/d86ecb6423ae9b44bd988745520d2ba7.png)
Input File: 06 Path of Discipline.mp3
Channels : 2
Sample Rate : 44100
Precision : 16-bit
Duration : 00:03:39.13 = 9663501 samples = 16434.5 CDDA sectors
File Size : 8.77M
Bit Rate : 320k
Sample Encoding: MPEG audio (layer I, II or III)
Comments :
Title=Path of Discipline
Artist=Red Death
Album=Sickness Divine
Tracknumber=06/10
Year=2019-19-20
Discnumber=1/1



Register


Go to the top of the page
  Insert nick Quick quote
+Quote Post
 
Start new topic
Replies (1 - 1)
post Dec 1 2019, 11:58:36
Post #2

Шесть Литров
******
Group: Металариец
Posts: 506
Releases: 23
On Forums: 11 years 3 weeks
Thanks: 531 time(s)
Russian Federation


FLAC tracks
Register
Go to the top of the page
  Insert nick Quick quote
+Quote Post

Reply to this topicStart new topic
1 User(s) are reading this topic (1 Guests and 0 Anonymous Users)
0 Members:

 



- Lo-Fi Version Support form
Copyrights and abuse reports form
Time is now: 10th December 2019 - 12:32:06