Welcome Guest ( Log In | Register )

> Правила / Rules

Тут только для чтения лежат низкобитрейтные (<192kbps) релизы, для которых есть аналоги в высокобитрейтных форумах.

Here goes (and stand in read only mode) low bitrate releases (<192kbps) which were already replaced by high bitrate releases in corresponding forums.

Причина закрытия (Хогги 30-11-2019):
 
Closed TopicStart new topic
> Tragediens Trone - Tragediens Trone (2019), Black Metal
post Nov 28 2019, 13:37:28
Post #1

Serial Uploader
Group Icon
Group: V.I.P
Posts: 36,592
Releases: 34781
From: Lithuania
On Forums: 11 years 6 months
Thanks: 407311 time(s)
Lithuania


(IMG:https://metalarea.org/images/audiocovers/2019_Nov/acov_tid330911_thumb.jpg)

*Artist: Tragediens Trone
*Album: Tragediens Trone
*Year: 2019
*Genre: Black Metal
*Country: Norway (IMG:https://metalarea.org/forum/style_images/flags/Norway.png)
*Format: mp3@CBR320kbps
*Size: 92MB

Tracklist:
01. Entrance 05:43
02. Cold Depths of Solitude 05:00
03. The Bornless One 04:09
04. Stygian Fluke 06:14
05. Erbrechen 04:51
06. Avgrunnsmarsj 04:07
07. Siphon Anima 08:01
******************************
Total playing time: 38:05

(IMG:https://metalarea.org/images/myspace.png)


(IMG:https://metalarea.org/images/youtube.png)

Technical info
(IMG:https://metalarea.org/images/spectrogram/2019_Nov/bcdbb6ad63b31fb946ba8fde20c32f6a.png)
Input File: 02 Cold Depths of Solitute.mp3
Channels : 2
Sample Rate : 44100
Precision : 16-bit
Duration : 00:05:00.32 = 13244244 samples = 22524.2 CDDA sectors
File Size : 12.8M
Bit Rate : 341k
Sample Encoding: MPEG audio (layer I, II or III)
Comments :
Title=Cold Depths of Solitute
Artist=TRAGEDIENS TRONE
Album=Tragediens Trone
Tracknumber=2/7
Year=2019
Discnumber=1/1



Register


Go to the top of the page
  Insert nick Quick quote
+Quote Post

Причина закрытия (Хогги 30-11-2019):
Closed TopicStart new topic
2 User(s) are reading this topic (2 Guests and 0 Anonymous Users)
0 Members:

 



- Lo-Fi Version Support form
Copyrights and abuse reports form
Time is now: 11th December 2019 - 03:39:40