Welcome Guest ( Log In | Register )

> Releases Upload / Добавление релизов

Добавить релиз тут / Click here to add release
Рекомендованные обменники / Recommended file shares

> Aleister - No Way Out (2019), Thrash Metal
post Nov 28 2019, 14:08:24
Post #1

Правь статус, ####!111
**************
Group: Металариец
Posts: 19,899
Releases: 13511
From: Г.Харьков
On Forums: 7 years 7 months
Thanks: 233683 time(s)
Unknown


(IMG:http://metalarea.org/images/audiocovers/2019_Nov/acov_tid330916_thumb.jpg)

*Artist: Aleister
*Album: No Way Out
*Year: 2019
*Genre: Thrash Metal
*Country: France (IMG:http://metalarea.org/forum/style_images/flags/France.png)
*Format: mp3@CBR320kbps
*Size: 74MB

Tracklist:
1. I Grow
2. Slave
3. Primary
4. Straighten Up
5. Bastard 2.0
6. I Feel Myself
7. Gods Don't Bless You
******************************
Total playing time: 32:27




Extended info
Didier Renaud Bass
Neon Drums
David Roustany Vocals, Guitars


Technical info
(IMG:http://metalarea.org/images/spectrogram/2019_Nov/d33f06ad433684167a814ccd317497c6.png)
Input File: 3 - Primary.mp3
Channels : 2
Sample Rate : 44100
Precision : 16-bit
Duration : 00:04:13.79 = 11192271 samples = 19034.5 CDDA sectors
File Size : 10.2M
Bit Rate : 321k
Sample Encoding: MPEG audio (layer I, II or III)
Comments :
Title=Primary
Artist=Aleister
Album=No Way Out
Tracknumber=3
Year=2019
Discnumber=1



Register


Go to the top of the page
  Insert nick Quick quote
+Quote Post
 
Start new topic
Replies (1 - 3)
post Nov 28 2019, 19:53:31
Post #2

i listen to black metal
**************
Group: Металариец
Posts: 2,461
Releases: 129
From: Москва-Лианозово
On Forums: 12 years 11 months
Thanks: 2079 time(s)
Russian Federation


старики проснулись)))))
Go to the top of the page
  Insert nick Quick quote
+Quote Post
post Dec 1 2019, 09:42:27
Post #3

Три Литра
***
Group: Завсегдатай
Posts: 282
Releases: 0
From: Kyiv
On Forums: 7 years 8 months
Thanks: 109 time(s)
Ukraine


Могли и не просыпаться.
Ниачёмный релиз.


Thanks:
Go to the top of the page
  Insert nick Quick quote
+Quote Post
post Dec 2 2019, 21:59:38
Post #4

Два Литра
**
Group: Завсегдатай
Posts: 107
Releases: 0
From: Isla de Margarita, Venezuela
On Forums: 11 months 2 days
Thanks: 9 time(s)
Venezuela


(IMG:style_emoticons/default/metaler.gif) good thrash

(IMG:style_emoticons/default/17.gif)
Go to the top of the page
  Insert nick Quick quote
+Quote Post

Reply to this topicStart new topic
2 User(s) are reading this topic (2 Guests and 0 Anonymous Users)
0 Members:

 



- Lo-Fi Version Support form
Copyrights and abuse reports form
Time is now: 16th December 2019 - 12:03:57