Welcome Guest ( Log In | Register )

> 

Здесь релизы с живыми прямыми ссылками на lossless

> Blacksmith Legacy - Battalions Of The Northern Realm (2019), Heavy Metal
post Nov 29 2019, 01:04:33
Post #1

Правь статус, ####!111
**************
Group: Металариец
Posts: 19,812
Releases: 13428
From: Г.Харьков
On Forums: 7 years 7 months
Thanks: 232475 time(s)
Unknown


(IMG:http://metalarea.org/images/audiocovers/2019_Nov/acov_tid330951_thumb.jpg)

*Artist: Blacksmith Legacy
*Album: Battalions Of The Northern Realm
*Year: 2019
*Genre: Heavy Metal
*Country: Sweden (IMG:http://metalarea.org/forum/style_images/flags/Sweden.png)
*Format: mp3@CBR320kbps
*Size: 124MB

Tracklist:
1. March of the TItans (Intro)
2. Battalions of the Northern Realm
3. Blacksmith Legacy
4. Far from the Light
5. Demolition Man
6. Arms of Fate
7. All Stars in Heaven
8. Burn Down in Hell
9. Information Overload
10. Self Esteem Machine
11. Battalions Hymn
12. Arms of Fate (Acoustic version)
******************************
Total playing time: 54:09



Extended info
Torgil Sturesson Drums (2009-present)
Martin Sturesson Guitars (lead), Vocals (backing) (2009-present)
Claes Karlsson Guitars (2013-present)
Mike Noberg Bass (2015-2018), Vocals (lead) (2018-present)
Gustav Bronelius Bass (2018-present)


Technical info
(IMG:http://metalarea.org/images/spectrogram/2019_Nov/e06b0cb657be85a728befc2f4b397738.png)
Input File: 05 - Demolition Man.mp3
Channels : 2
Sample Rate : 44100
Precision : 16-bit
Duration : 00:04:22.00 = 11554156 samples = 19649.9 CDDA sectors
File Size : 10.5M
Bit Rate : 320k
Sample Encoding: MPEG audio (layer I, II or III)
Comments :
Title=Demolition Man
Artist=Blacksmith Legacy
Album=Battalions of the Northern Realm
Tracknumber=5
Year=2019
Genre=Heavy Metal
Discnumber=1



Register


Go to the top of the page
  Insert nick Quick quote
+Quote Post
 
Start new topic
Replies (1 - 4)
post Nov 29 2019, 19:20:47
Post #2

Наливай!
**************
Group: Металариец
Posts: 5,481
Releases: 27
From: Москва-Бибирево
On Forums: 11 years 8 months
Thanks: 2671 time(s)
Russian Federation


Обложка винтажных времён Вторых Героев, и крепкая песня в превью, просят дать шанс альбому. Дадим таки!.


Thanks:
Go to the top of the page
  Insert nick Quick quote
+Quote Post
post Nov 29 2019, 21:14:52
Post #3

Group: Подсевший
Posts: 31
Releases: 0
On Forums: 1 year 9 months
Thanks: 15 time(s)
Saint Helena


Отличная работа. В духе ранних альбомов Nocturnal Rites, особенно Tales of Mystery and Imagination (IMG:style_emoticons/default/pray.gif)


Thanks:
Go to the top of the page
  Insert nick Quick quote
+Quote Post
post Nov 30 2019, 07:45:22
Post #4

hearer & reader
**************
Group: Металариец
Posts: 8,233
Releases: 111
From: Moscow
On Forums: 12 years 3 months
Thanks: 7766 time(s)
Russian Federation



Неплохо
Go to the top of the page
  Insert nick Quick quote
+Quote Post
post Dec 1 2019, 12:01:05
Post #5

Шесть Литров
******
Group: Металариец
Posts: 506
Releases: 23
On Forums: 11 years 3 weeks
Thanks: 531 time(s)
Russian Federation


FLAC tracks
Register


Thanks:
(1) SAPOGi,
Go to the top of the page
  Insert nick Quick quote
+Quote Post

Reply to this topicStart new topic
1 User(s) are reading this topic (1 Guests and 0 Anonymous Users)
0 Members:

 



- Lo-Fi Version Support form
Copyrights and abuse reports form
Time is now: 10th December 2019 - 12:17:34