Welcome Guest ( Log In | Register )

> 

Здесь релизы с живыми прямыми ссылками на lossless

> Strider - Dominion Of Steel (2019), Heavy Metal
post Nov 29 2019, 02:27:44
Post #1

Правь статус, ####!111
**************
Group: Металариец
Posts: 23,260
Releases: 16236
From: Г.Харьков
On Forums: 8 years 4 months
Thanks: 303396 time(s)
Unknown


(IMG:http://metalarea.org/images/audiocovers/2019_Nov/acov_tid330954_thumb.jpg)

*Artist: Strider
*Album: Dominion Of Steel
*Year: 2019
*Genre: Heavy Metal
*Country: Finland (IMG:http://metalarea.org/forum/style_images/flags/Finland.png)
*Format: mp3@CBR320kbps
*Size: 110MB

Tracklist:
01. Strike of the Strider
02. Break the Chains
03. Throne of Metal
04. We Are Strider
05. Ballad of the Baltic Sea
06. The Elite of Steel
07. Let Your Blade Shine
08. Stride, Stride, Stride
09. Dominion of Steel
10. Prevail and Conque
******************************
Total playing time: 47:39



Extended info
Tuska E. – drums
Mardewar – bass
Niko Kristian – vocals & acoustic guitar
Ville – guitar
Eemeli – guitar


Technical info
(IMG:http://metalarea.org/images/spectrogram/2019_Nov/b9ce658208eb0aed22f0586771c70fa3.png)
Input File: 03 - Throne of Metal.mp3
Channels : 2
Sample Rate : 44100
Precision : 16-bit
Duration : 00:04:30.02 = 11907706 samples = 20251.2 CDDA sectors
File Size : 10.9M
Bit Rate : 323k
Sample Encoding: MPEG audio (layer I, II or III)
Comments :
Title=Throne of Metal
Artist=Strider
Album=Dominion of Steel
Tracknumber=3
Year=2019-11-29
Discnumber=1



Register


Go to the top of the page
  Insert nick Quick quote
+Quote Post
 
Start new topic
Replies (1 - 2)
post Nov 29 2019, 17:42:39
Post #2

MDM-Thrash Metal
**************
Group: Металариец
Posts: 9,859
Releases: 1052
From: Одесса
On Forums: 13 years 1 month
Thanks: 26200 time(s)
Ukraine


Прослушка: https://store.cdbaby.com/cd/strider1
Go to the top of the page
  Insert nick Quick quote
+Quote Post
post Dec 1 2019, 12:03:05
Post #3

Маньяк
**********
Group: Металариец
Posts: 1,457
Releases: 244
On Forums: 11 years 10 months
Thanks: 5038 time(s)
Russian Federation


FLAC tracks
Register


Go to the top of the page
  Insert nick Quick quote
+Quote Post

Reply to this topicStart new topic
1 User(s) are reading this topic (1 Guests and 0 Anonymous Users)
0 Members:

 



- Lo-Fi Version Support form
Copyrights and abuse reports form
Time is now: 28th September 2020 - 13:05:48