Welcome Guest ( Log In | Register )

> И неформату есть предел.

Рэп/хип-хоп/шансон/поп удаляются. Для них есть свои порталы.

 
Reply to this topicStart new topic
> Solaris - Nostradamus 2.0: Returnity (2019), Progressive Rock (D7)
post Nov 29 2019, 09:59:13
Post #1

Герберт Уэст
**************
Group: Металариец
Posts: 2,221
Releases: 68
From: Поморье
On Forums: 10 years 5 months
Thanks: 4624 time(s)
Russian Federation


(IMG:http://metalarea.org/images/audiocovers/2019_Nov/acov_tid330959_thumb.jpg)

*Artist: Solaris
*Album: Nostradamus 2.0: Returnity
*Year: 2019
*Genre: Progressive Rock
*Country: Hungary (IMG:http://metalarea.org/forum/style_images/flags/Hungary.png)
*Format: mp3@CBR320kbps
*Size: 102MB

Tracklist:
01. Returnity I-VI 34:00
- I 1960 Augusztus 1.
- II 1942 December 2.
- III 1986 Aprilis 26.
- IV 1905 Junius 30.
- V 1969 Szeptember 2.
- VI 1969 Julius 20.
02. Double Helix - 1953 Februar 28. 03:04
03. Deep Blue - 1997 Majus 11. 03:33
04. Radioscope - 1926 Marcius 20. 03:54
******************************
Total playing time: 44:31

Preview 1

Extended info
Line Up:
- Attila Kollar / lead vocals, flutes, tambourine
- Csaba Bogdan / guitars
- Robert Erdesz / keyboards, vocals
- Attila Seres / bass
- Laszlo Gomor / drums, percussion, vocals
- Vilmos Toth / drums (1)
- Ferenc Raus / drums (2,4)

With:
- Edina Szirtes 'Mokus' / violin
- Zsuzsa Ullmann / vocals
- Gyorgy Demeter / vocals
- Ferenz Gerdesits / vocals
Releases information
Sub-titled "Unborn Visions"

Artwork: Laszlo Bosnyak


Technical info
(IMG:http://metalarea.org/images/spectrogram/2019_Nov/46fc3373b56f0fdb6fad7e13fa870754.png)
Input File: 02. Double Helix - 1953. február 28..mp3
Channels : 2
Sample Rate : 44100
Precision : 16-bit
Duration : 00:03:06.45 = 8222401 samples = 13983.7 CDDA sectors
File Size : 7.51M
Bit Rate : 322k
Sample Encoding: MPEG audio (layer I, II or III)
Comments :
Title=Double Helix - 1953. Február 28.
Artist=Solaris
Album=Nostradamus 2.0 - Returnity
Tracknumber=02
Year=2019
Genre=Progressive Rock



Register


Go to the top of the page
  Insert nick Quick quote
+Quote Post

Reply to this topicStart new topic
1 User(s) are reading this topic (1 Guests and 0 Anonymous Users)
0 Members:

 



- Lo-Fi Version Support form
Copyrights and abuse reports form
Time is now: 10th December 2019 - 11:14:16