Welcome Guest ( Log In | Register )

> И неформату есть предел.

Рэп/хип-хоп/шансон/поп удаляются. Для них есть свои порталы.

> Riverside - Acoustic Session [ep] (2019), Progressive Rock/Metal (D)
post Nov 29 2019, 18:16:36
Post #1

Каждое ваше "Спасибо" помогает мне понять, что я делаю новости не напрасно.
**************
Group: Металариец
Posts: 2,109
Releases: 1858
From: Одесса
On Forums: 11 years 6 months
Thanks: 16308 time(s)
Ukraine


(IMG:http://metalarea.org/images/audiocovers/2019_Nov/acov_tid330966_thumb.jpg)

*Artist: Riverside
*Album: Acoustic Session [ep]
*Year: 2019
*Genre: Progressive Rock/Metal
*Country: Poland (IMG:http://metalarea.org/forum/style_images/flags/Poland.png)
*Format: mp3@CBR320kbps
*Size: 64MB

Tracklist:
1. Vale of Tears (Acoustic) 05:18
2. Out of Myself (Acoustic) 03:57
3. 02 Panic Room (Acoustic) 03:26
4. River Down Below (Acoustic) 05:01
5. Wasteland (Live Intro) 09:00
******************************
Total playing time: 26:42

(IMG:http://metalarea.org/images/youtube.png)

Extended info
Line - up:

Mariusz Duda - Bass, Guitars, Vocals (Lunatic Soul, Meller Gołyźniak Duda)
Piotr "Mittloff" Kozieradzki - Drums (ex-Dark Prophecies, ex-Hate, ex-Goetia, ex-Domain, ex-Holy Hell, ex-Toxic Reasons)
Michał Łapaj - Keyboards

(IMG:https://www.metal-archives.com/images/1/6/4/3/16437_photo.jpg?2451)


Technical info
(IMG:http://metalarea.org/images/spectrogram/2019_Nov/d7d7786c45854cce2586b920ac61290b.png)
Input File: 04. River Down Below - Acoustic.mp3
Channels : 2
Sample Rate : 44100
Precision : 16-bit
Duration : 00:05:00.95 = 13271895 samples = 22571.2 CDDA sectors
File Size : 12.0M
Bit Rate : 320k
Sample Encoding: MPEG audio (layer I, II or III)
Comments :
Title=River Down Below - Acoustic
Artist=Riverside
Album=Acoustic Session (EP)
Tracknumber=4
Year=2019
Genre=Progressive Rock/Metal



Register


Go to the top of the page
  Insert nick Quick quote
+Quote Post
 
Start new topic
Replies (1 - 3)
post Dec 3 2019, 22:59:46
Post #2

Мегаманьяк
***********
Group: Металариец
Posts: 1,760
Releases: 0
From: Харьков
On Forums: 10 years 2 months
Thanks: 738 time(s)
Ukraine


Ничего особенного.
Go to the top of the page
  Insert nick Quick quote
+Quote Post
post Dec 5 2019, 08:48:24
Post #3

21st Century Schizoid Man
**************
Group: Металариец
Posts: 6,139
Releases: 76
From: Moscow
On Forums: 11 years 7 months
Thanks: 4837 time(s)
Russian Federation


Увы, могу только согласиться. Некоторые аранжировки существенно хуже оригинала.
Go to the top of the page
  Insert nick Quick quote
+Quote Post
post Dec 5 2019, 08:54:11
Post #4

Литр
*
Group: Подсевший
Posts: 91
Releases: 0
On Forums: 1 week 5 days
Thanks: 31 time(s)
Russian Federation


Riverside вообще заметно сбавили в погоне за хитовостью. Они со временем почему-то стали очень пресными как проговые альбомы Opeth. Вроде спето и сыграно всё великолепно, но переслушивать желания не возникает.
Go to the top of the page
  Insert nick Quick quote
+Quote Post

Reply to this topicStart new topic
1 User(s) are reading this topic (1 Guests and 0 Anonymous Users)
0 Members:

 



- Lo-Fi Version Support form
Copyrights and abuse reports form
Time is now: 10th December 2019 - 12:09:24