Welcome Guest ( Log In | Register )

> Blood Oath - The Line Between [ep] (2017), Old School Death Metal
post Nov 30 2019, 21:05:14
Post #1

Правь статус, ####!111
**************
Group: Металариец
Posts: 20,674
Releases: 14117
From: Г.Харьков
On Forums: 7 years 9 months
Thanks: 249418 time(s)
Unknown


(IMG:http://metalarea.org/images/audiocovers/2019_Nov/acov_tid331009_thumb.jpg)

*Artist: Blood Oath
*Album: The Line Between [ep]
*Year: 2017
*Genre: Old School Death Metal
*Country: Chile (IMG:http://metalarea.org/forum/style_images/flags/Chile.png)
*Format: mp3@CBR320kbps
*Size: 53MB

Tracklist:
1. Lunacy (Intro) 02:01 instrumental
2. Lobotomy 03:51
3. Putrid Mind 04:27
4. Morbid Lust 03:39
5. Rites of Cruelty 04:14
6. Watch them Die 04:33
******************************
Total playing time: 22:45




Extended info
Matias Canales Bass
Ignacio Canales Guitars
Anton Contreras Guitars
Kevin Inostroza Vocals
Benjamin Soto Drums


Technical info
(IMG:http://metalarea.org/images/spectrogram/2019_Nov/4e347d668a1d9e319127fa33db92295f.png)
Input File: 03 - Putrid Mind.mp3
Channels : 2
Sample Rate : 44100
Precision : 16-bit
Duration : 00:04:24.48 = 11663480 samples = 19835.9 CDDA sectors
File Size : 10.8M
Bit Rate : 326k
Sample Encoding: MPEG audio (layer I, II or III)
Comments :
Title=Putrid Mind
Artist=Blood Oath
Album=The Line Between
Tracknumber=3
Year=2017-12-02
Discnumber=1



Register


Go to the top of the page
  Insert nick Quick quote
+Quote Post
 
Start new topic
Replies (1 - 4)
post Dec 1 2019, 08:53:02
Post #2

Мегаманьяк
***********
Group: Металариец
Posts: 1,980
Releases: 0
From: Украина
On Forums: 11 years 1 month
Thanks: 1267 time(s)
Ukraine


А вот и моя таблетка от всего! Епэшка просто сказочная, мало того что олд во всей красе, так ещё и БАААССС - БАРАБАААСССССС шикарнейший, вездесущий, плавный, текущий, мурлыкающий, клацающий, хрюкающий, короче ЧИЛИЙСКИЙ БАСС - БАРАБАССС. Лично для меня это оно на сто процентов, вкуснейшая штуковина, слушабельность не реальная, прослушал уже и сам не знаю сколько раз. Для меня это шедевр. именно то что мне надо. Обожнюю этот наркотик. (IMG:style_emoticons/default/metaler.gif) (IMG:style_emoticons/default/9.gif) (IMG:style_emoticons/default/pray.gif)


Go to the top of the page
  Insert nick Quick quote
+Quote Post
post Dec 5 2019, 20:32:47
Post #3

Group: Подсевший
Posts: 49
Releases: 0
On Forums: 6 years 2 weeks
Thanks: 13 time(s)
Russian Federation


С подачи хвалебных отзывов troll_swamp с необычайным удовольствием для себя послушал этот релиз и релиз Suppression, а в рекомендациях на бандкампе нашел похожих и не мене интересных чилийцев Horrifying
Go to the top of the page
  Insert nick Quick quote
+Quote Post
post Dec 9 2019, 21:08:56
Post #4

Русский
*****
Group: Металариец
Posts: 418
Releases: 0
From: Москва
On Forums: 13 years 5 months
Thanks: 177 time(s)
Russian Federation


пишут на бэндкэмпе Athens, Georgia
Go to the top of the page
  Insert nick Quick quote
+Quote Post
post Dec 10 2019, 02:39:52
Post #5

Шесть Литров
******
Group: Металариец
Posts: 539
Releases: 1
From: АР Крым, Симферополь
On Forums: 11 years 10 months
Thanks: 239 time(s)
Russian Federation


ЦИТАТА(denver @ 9th December 2019 - 23:08:56) *
пишут на бэндкэмпе Athens, Georgia


denver, это локация лейбла который релизнул сиих чумовых олдскульных чилийцев.


Thanks:
Go to the top of the page
  Insert nick Quick quote
+Quote Post

Reply to this topicStart new topic
1 User(s) are reading this topic (1 Guests and 0 Anonymous Users)
0 Members:

 



- Lo-Fi Version Support form
Copyrights and abuse reports form
Time is now: 25th February 2020 - 09:18:34