Welcome Guest ( Log In | Register )

> Amuzia - Лабиринти В Разума (1996), Thrash Metal
post Dec 1 2019, 11:36:29
Post #1

Подвал
**************
Group: Металариец
Posts: 14,788
Releases: 8383
From: Far East (Khabarovsk)
On Forums: 11 years 5 months
Thanks: 86889 time(s)
Russian Federation


(IMG:http://metalarea.org/images/audiocovers/2019_Dec/acov_tid331034_thumb.jpg)

*Artist: Amuzia
*Album: Лабиринти В Разума
*Year: 1996
*Genre: Thrash Metal
*Country: Bulgaria (IMG:http://metalarea.org/forum/style_images/flags/Bulgaria.png)
*Format: mp3@CBR128kbps (IMG:http://metalarea.org/images/bit_low.gif)
*Size: 52MB

Tracklist:
1. Лабиринт 06:28
2. Агония 05:57
3. Отровата На Желанието 06:26
4. Самота 06:50
5. Чужда Земя 04:08
6. Клаустрофобия 04:27
7. Против Теб 06:23
8. Любов И Омраза 06:27
9. Забравен Свят 06:06
10. Безумие 04:41
******************************
Total playing time: 57:53

Extended info
Recorded at NDK's studio 1 - Sofia (BG).


Technical info
(IMG:http://metalarea.org/images/spectrogram/2019_Dec/cc0234092f396a1f782fb6f8aafdfb82.png)
Input File: 01-Labirint.mp3
Channels : 2
Sample Rate : 44100
Precision : 16-bit
Duration : 00:06:26.78 = 17056822 samples = 29008.2 CDDA sectors
File Size : 6.19M
Bit Rate : 128k
Sample Encoding: MPEG audio (layer I, II or III)
Comments :
Title=Лабиринт
Artist=Amuzia
Album=Лабиринти в разума
Tracknumber=01
Year=1996
Genre=Thrash Metal



Register


Go to the top of the page
  Insert nick Quick quote
+Quote Post
 
Start new topic
Replies (1 - 1)
post Dec 2 2019, 08:56:58
Post #2

South Of Heaven /адепт ВУДУ
**************
Group: Металариец
Posts: 13,960
Releases: 9
On Forums: 10 years 3 months
Thanks: 5479 time(s)
Unknown




Thanks:
Go to the top of the page
  Insert nick Quick quote
+Quote Post

Reply to this topicStart new topic
2 User(s) are reading this topic (2 Guests and 0 Anonymous Users)
0 Members:

 



- Lo-Fi Version Support form
Copyrights and abuse reports form
Time is now: 9th July 2020 - 03:32:47