Welcome Guest ( Log In | Register )

> Releases Upload / Добавление релизов

Добавить релиз тут / Click here to add release
Рекомендованные обменники / Recommended file shares

> Väkären - Prison Of Forgotten Names [demo] (2019), Black Metal
post Dec 1 2019, 17:22:56
Post #1

Мегаманьяк
***********
Group: Металариец
Posts: 1,853
Releases: 1468
From: Prešov
On Forums: 5 years 8 months
Thanks: 35959 time(s)
Slovakia


(IMG:http://metalarea.org/images/audiocovers/2019_Dec/acov_tid331044_thumb.jpg)

*Artist: Väkären
*Album: Prison Of Forgotten Names [demo]
*Year: 2019
*Genre: Black Metal
*Country: Sweden (IMG:http://metalarea.org/forum/style_images/flags/Sweden.png)
*Format: mp3@CBR320kbps
*Size: 36MB

Tracklist:
1. I
2. II
3. III
4. Titan Carrion [2019]
******************************
Total playing time: 15:32

Technical info
(IMG:http://metalarea.org/images/spectrogram/2019_Dec/bb3d3a8fba808f1cac260e7177a08e5e.png)
Input File: 02. II.mp3
Channels : 2
Sample Rate : 44100
Precision : 16-bit
Duration : 00:03:37.00 = 9569568 samples = 16274.8 CDDA sectors
File Size : 8.72M
Bit Rate : 321k
Sample Encoding: MPEG audio (layer I, II or III)
Comments :
Title=II
Album=Prison Of Forgotten Names
Tracknumber=02/04
Year=2019
Genre=Black Metal



Register


Go to the top of the page
  Insert nick Quick quote
+Quote Post
 
Start new topic
Replies (1 - 2)
post Dec 3 2019, 19:13:17
Post #2

Четыре Литра
****
Group: Металариец
Posts: 311
Releases: 19
From: France
On Forums: 10 years 4 months
Thanks: 523 time(s)
France


Youtube
Go to the top of the page
  Insert nick Quick quote
+Quote Post
post Dec 3 2019, 19:26:57
Post #3


**************
Group: Металариец
Posts: 2,151
Releases: 14
From: Казань
On Forums: 10 years 3 months
Thanks: 2842 time(s)
Russian Federation


Это - Тотальная Галактика циничного и неистового, это то, что поглощает недоразумение и выплевывает его через джеты Негодования.

Те, кто сравнивает век, в котором им выпало жить, с золотым веком, существующим лишь в нашем воображении, могут рассуждать о вырождении и крахе; но тот, кто хорошо осведомлен о прошлом, никогда не станет отчаиваться по поводу настоящего.(с)
Go to the top of the page
  Insert nick Quick quote
+Quote Post

Reply to this topicStart new topic
1 User(s) are reading this topic (1 Guests and 0 Anonymous Users)
0 Members:

 



- Lo-Fi Version Support form
Copyrights and abuse reports form
Time is now: 16th December 2019 - 12:00:10