Welcome Guest ( Log In | Register )

> Releases Upload / Добавление релизов

Добавить релиз тут / Click here to add release
Рекомендованные обменники / Recommended file shares

> Í Myrkri - Black Fortress Of Solitude (2019), Atmospheric Black Metal
post Dec 1 2019, 18:01:33
Post #1

Маньяк
**********
Group: Металариец
Posts: 1,033
Releases: 866
From: Новороссийск
On Forums: 8 years 7 months
Thanks: 15573 time(s)
Russian Federation


(IMG:https://metalarea.org/images/audiocovers/2019_Dec/acov_tid331047_thumb.jpg)

*Artist: Í Myrkri
*Album: Black Fortress Of Solitude
*Year: 2019
*Genre: Atmospheric Black Metal
*Country: Denmark (IMG:https://metalarea.org/forum/style_images/flags/Denmark.png)
*Format: mp3@CBR320kbps
*Size: 98MB

Tracklist:
01. The Force Of Atmosphere 06:08
02. Beyond The Black Veil 06:19
03. Upon An Altar Of Blood 06:01
04. A Starlight Ceremony 05:37
05. Nocturnal Enchantments 06:58
06. Wings To Be Reborn 05:11
07. Summoned By The Woods 06:29
******************************
Total playing time: 42:47




Technical info
(IMG:https://metalarea.org/images/spectrogram/2019_Dec/3df89995f5d9b2d21ff5282a33d2d940.png)
Input File: 05. Nocturnal Enchantments.mp3
Channels : 2
Sample Rate : 44100
Precision : 16-bit
Duration : 00:06:58.12 = 18438916 samples = 31358.7 CDDA sectors
File Size : 16.7M
Bit Rate : 320k
Sample Encoding: MPEG audio (layer I, II or III)
Comments :
Title=Nocturnal Enchantments
Artist=Í Myrkri
Album=Black Fortress Of Solitude
Tracknumber=05
Year=2019
Genre=Black Metal



Register


Go to the top of the page
  Insert nick Quick quote
+Quote Post
 
Start new topic
Replies (1 - 1)
post Dec 8 2019, 05:48:02
Post #2

Правь статус, ####!111
**************
Group: Металариец
Posts: 4,069
Releases: 1042
From: Brazil
On Forums: 7 years 10 months
Thanks: 38648 time(s)
Brazil


Register

Register

mp3@CBR320kbps


Go to the top of the page
  Insert nick Quick quote
+Quote Post

Reply to this topicStart new topic
1 User(s) are reading this topic (1 Guests and 0 Anonymous Users)
0 Members:

 



- Lo-Fi Version Support form
Copyrights and abuse reports form
Time is now: 16th December 2019 - 11:17:16