Welcome Guest ( Log In | Register )

> Releases Upload / Добавление релизов

Добавить релиз тут / Click here to add release
Рекомендованные обменники / Recommended file shares

 
Reply to this topicStart new topic
> Big Boss - Než Zemřu (2019), Doom Metal/Rock
post Dec 1 2019, 18:54:25
Post #1

Каждое ваше "Спасибо" помогает мне понять, что я делаю новости не напрасно.
**************
Group: Металариец
Posts: 2,128
Releases: 1874
From: Одесса
On Forums: 11 years 6 months
Thanks: 16504 time(s)
Ukraine


(IMG:http://metalarea.org/images/audiocovers/2019_Dec/acov_tid331048_thumb.jpg)

*Artist: Big Boss
*Album: Než Zemřu
*Year: 2019
*Genre: Doom Metal/Rock
*Country: Czech Republic (IMG:http://metalarea.org/forum/style_images/flags/Czech%20Republic.png)
*Format: mp3@CBR320kbps
*Size: 97MB

Tracklist:
1.Zrození
2.Moje dětství
3.Na dně
4.Ztráty
5.Dlouhá cesta vzhůru
6.Per aspera ad astra
7.Hudba je můj život
8.Můj život byl...
9.Čas odejít
******************************
Total playing time: 40:14

(IMG:http://metalarea.org/images/youtube.png)

Extended info
Line - up:

Paramba - Bass (Asgard, Solfernus, Pačess (live))
Zbyněk Husa - Drums (Root)
Lukáš Krupička - Guitars
Thomas Bruno - Guitars
Čed - Keyboards (Pačess (live), The Fog, ex-Endelecheia, Vidle v hajzlu, Waterscape, ex-Tears of Styrbjørn, ex-Death Sentence, ex-Somnus Aeternus, ex-Enzym)
Big Boss - Vocals (Equirhodont, Root)

(IMG:https://www.metal-archives.com/images/2/2/3/5/22352_photo.jpg)


Technical info
(IMG:http://metalarea.org/images/spectrogram/2019_Dec/25f53a01089f87a3f06df75b2fdbbefd.png)
Input File: 01 - Zrození.mp3
Channels : 2
Sample Rate : 44100
Precision : 16-bit
Duration : 00:04:29.81 = 11898621 samples = 20235.8 CDDA sectors
File Size : 10.8M
Bit Rate : 320k
Sample Encoding: MPEG audio (layer I, II or III)
Comments :
Title=Zrození
Artist=Big Boss
Album=Než zemřu
Tracknumber=1
Year=2019
Genre=Doom Metal/Rock



Register


Go to the top of the page
  Insert nick Quick quote
+Quote Post

Reply to this topicStart new topic
1 User(s) are reading this topic (1 Guests and 0 Anonymous Users)
0 Members:

 



- Lo-Fi Version Support form
Copyrights and abuse reports form
Time is now: 16th December 2019 - 10:54:52