Welcome Guest ( Log In | Register )

> Motherfaster - Slower Father (2019), Heavy Metal
post Dec 1 2019, 19:08:46
Post #1

Правь статус, ####!111
**************
Group: Металариец
Posts: 2,922
Releases: 2617
From: Одесса
On Forums: 12 years 1 month
Thanks: 25184 time(s)
Ukraine


(IMG:http://metalarea.org/images/audiocovers/2019_Dec/acov_tid331049_thumb.jpg)

*Artist: Motherfaster
*Album: Slower Father
*Year: 2019
*Genre: Heavy Metal
*Country: Greece (IMG:http://metalarea.org/forum/style_images/flags/Greece.png)
*Format: mp3@CBR320kbps
*Size: 103MB

Tracklist:
1.Stash the Cash
2.Abused in the Garden of Love
3.Shotgun Blast
4.Bull on a Parachute
5.Crocoblues
6.Kamikaze Rider
7.Snitches Get Stitches (I Smell a Rat)
8.Evil Eye Removal
9.Sinnerman (Cover)
******************************
Total playing time: 43:04



Extended info
Line - up:

Jim Gkikas - Drums (ex-Icy Vale)
Bill Giannakopoulos - Guitars (After Dusk)
Paminos Giannakopoulos - Vocals, Bass (After Dusk)

(IMG:https://www.metal-archives.com/images/3/5/4/0/3540407078_photo.jpg?0946)


Technical info
(IMG:http://metalarea.org/images/spectrogram/2019_Dec/5902a0c731bf6a310a5a7ed06f808578.png)
Input File: 1 - Stash the Cash.mp3
Channels : 2
Sample Rate : 44100
Precision : 16-bit
Duration : 00:04:53.71 = 12952787 samples = 22028.5 CDDA sectors
File Size : 11.8M
Bit Rate : 321k
Sample Encoding: MPEG audio (layer I, II or III)
Comments :
Title=Stash the Cash
Artist=Motherfaster
Album=Slower Father
Tracknumber=1
Year=2019
Genre=137



Register


Go to the top of the page
  Insert nick Quick quote
+Quote Post
 
Start new topic
Replies (1 - 1)
post Dec 15 2019, 19:44:38
Post #2

Перевозчик
**************
Group: Металариец
Posts: 3,180
Releases: 0
On Forums: 12 years 6 days
Thanks: 714 time(s)
Russian Federation


Обложка занимательная...
Go to the top of the page
  Insert nick Quick quote
+Quote Post

Reply to this topicStart new topic
1 User(s) are reading this topic (1 Guests and 0 Anonymous Users)
0 Members:

 



- Lo-Fi Version Support form
Copyrights and abuse reports form
Time is now: 10th July 2020 - 20:32:20