Welcome Guest ( Log In | Register )

> Releases Upload / Добавление релизов

Добавить релиз тут / Click here to add release
Рекомендованные обменники / Recommended file shares

 
Reply to this topicStart new topic
> Misertus - Outland (2019), Atmospheric/Post-Black Metal
post Dec 1 2019, 19:49:30
Post #1

Каждое ваше "Спасибо" помогает мне понять, что я делаю новости не напрасно.
**************
Group: Металариец
Posts: 2,128
Releases: 1874
From: Одесса
On Forums: 11 years 6 months
Thanks: 16504 time(s)
Ukraine


(IMG:http://metalarea.org/images/audiocovers/2019_Dec/acov_tid331051_thumb.jpg)

*Artist: Misertus
*Album: Outland
*Year: 2019
*Genre: Atmospheric/Post-Black Metal
*Country: United Kingdom (IMG:http://metalarea.org/forum/style_images/flags/United%20Kingdom.png)
*Format: mp3@CBR320kbps
*Size: 92MB

Tracklist:
1.Vacillating Skies 06:44
2.Wanderer 03:48
3.Blue Spirits 03:54
4.Camphine 04:31
5.Oceanfold 05:15
6.Outland 04:45
7.Aether (A Distant Ember) 09:24
******************************
Total playing time: 38:21



Technical info
(IMG:http://metalarea.org/images/spectrogram/2019_Dec/ebd4151cc87264a73fec43e86323a40d.png)
Input File: 01. Vacillating Skies.mp3
Channels : 2
Sample Rate : 44100
Precision : 16-bit
Duration : 00:06:44.58 = 17842110 samples = 30343.7 CDDA sectors
File Size : 16.3M
Bit Rate : 322k
Sample Encoding: MPEG audio (layer I, II or III)
Comments :
Title=Vacillating Skies
Artist=Misertus
Album=Outland
Tracknumber=1
Year=2019
Genre=Atmospheric/Post-Black Metal



Register


Go to the top of the page
  Insert nick Quick quote
+Quote Post

Reply to this topicStart new topic
1 User(s) are reading this topic (1 Guests and 0 Anonymous Users)
0 Members:

 



- Lo-Fi Version Support form
Copyrights and abuse reports form
Time is now: 16th December 2019 - 11:00:54