Welcome Guest ( Log In | Register )

> Releases Upload / Добавление релизов

Добавить релиз тут / Click here to add release
Рекомендованные обменники / Recommended file shares

> Running Wild - Ride On The Wild Side [single] (2019), Heavy/Power Metal (D)
post Dec 1 2019, 19:55:09
Post #1

MDM-Thrash Metal
**************
Group: Металариец
Posts: 9,132
Releases: 758
From: Одесса
On Forums: 12 years 4 months
Thanks: 20167 time(s)
Ukraine


(IMG:http://metalarea.org/images/audiocovers/2019_Dec/acov_tid331052_thumb.jpg)

*Artist: Running Wild
*Album: Ride On The Wild Side [single]
*Year: 2019
*Genre: Heavy/Power Metal
*Country: Germany (IMG:http://metalarea.org/forum/style_images/flags/Germany.png)
*Format: mp3@CBR320kbps
*Size: 11MB

Tracklist:
1. Ride On The Wild Side 4:07
******************************
Total playing time: 4:07


(IMG:http://metalarea.org/images/youtube.png)

Technical info
(IMG:http://metalarea.org/images/spectrogram/2019_Dec/a45496e019935d0a38a555eec7b9d06f.png)
Input File: 01 running_wild_ride_on_the_wild_side.mp3
Channels : 2
Sample Rate : 44100
Precision : 16-bit
Duration : 00:04:07.40 = 10910164 samples = 18554.7 CDDA sectors
File Size : 11.4M
Bit Rate : 370k
Sample Encoding: MPEG audio (layer I, II or III)
Comments :
Title=Ride on the Wild Side
Artist=Running Wild
Album=Ride on the Wild Side
Tracknumber=1
Year=2019
Genre=Heavy Metal



Register


Go to the top of the page
  Insert nick Quick quote
+Quote Post
 
Start new topic
Replies (1 - 1)
post Dec 2 2019, 11:05:03
Post #2

Правь статус, ####!111
**************
Group: Металариец
Posts: 2,378
Releases: 33
From: Nakhodka
On Forums: 9 years 6 months
Thanks: 2080 time(s)
Russian Federation


То же самое, что на недавней епишке?
Go to the top of the page
  Insert nick Quick quote
+Quote Post

Reply to this topicStart new topic
1 User(s) are reading this topic (1 Guests and 0 Anonymous Users)
0 Members:

 



- Lo-Fi Version Support form
Copyrights and abuse reports form
Time is now: 16th December 2019 - 12:10:01